Edie & Pen | EPS 15 999: Whats Your Emergency | Animation

Скачать через торрент музыку Bubblegum Crisis Complete Vocal Collection - 1998, APE бесплатно без регистрации torrent

Статистика раздачи
Размер:  956 MB   |    Зарегистрирован:  7 лет 3 месяца   |    .torrent скачан:  42 раза   |   
Раздают:  1  
   
загрузка...
 
Автор Сообщение

L


Bubblegum Crisis Complete Vocal Collection

Жанр: OST
Год выпуска диска: 1998
Производитель диска: Japan
Аудио кодек: APE
Тип рипа: image+.cue
Битрейт аудио: lossless
Продолжительность: 3 CD
Трэклист:
TRACK 01 AUDIO
TITLE "Ohmori Kinuko - Hurricane tonight"
TRACK 02 AUDIO
TITLE "Bluew - Mr. Dandy"
TRACK 03 AUDIO
TITLE "Ohmori Kinuko - Wild and Scarred"
TRACK 04 AUDIO
TITLE "Ohmori Kinuko - Victory"
TRACK 05 AUDIO
TITLE "Tsubokura Yuiko - Crisis Run with anger"
TRACK 06 AUDIO
TITLE "Tsubokura Yuiko - Twilight"
TRACK 07 AUDIO
TITLE "Tsubokura Yuiko - Soldiers of Roses"
TRACK 08 AUDIO
TITLE "Tsubokura Yuiko - Embraced in memory"
TRACK 09 AUDIO
TITLE "Tsubokura Yuiko - Rock Me"
TRACK 10 AUDIO
TITLE "Hashimoto Maiko - Say, Yes!"
TRACK 11 AUDIO
TITLE "Hashimoto Maiko - Never The End"
TRACK 12 AUDIO
TITLE "Ohmori Kinuko - Chase The Dream"
TRACK 01 AUDIO
TITLE "Hiramatsu Akiko - Kiss, Seventeen girl"
TRACK 02 AUDIO
TITLE "Hiramatsu Akiko - You are my sun"
TRACK 03 AUDIO
TITLE "Hiramatsu Akiko - First Impression"
TRACK 04 AUDIO
TITLE "Tomizawa Michie - Angel of loneliness"
TRACK 05 AUDIO
TITLE "Sakakibara Yoshiko - Starlight"
TRACK 06 AUDIO
TITLE "Sakakibara Yoshiko - With"
TRACK 07 AUDIO
TITLE "Sakakibara Yoshiko - Here in the dark"
TRACK 08 AUDIO
TITLE "Sakakibara Yoshiko - Silent moon"
TRACK 09 AUDIO
TITLE "Tomizawa Michie - The midnight moon"
TRACK 10 AUDIO
TITLE "Tomizawa Michie - My heart's in neutral"
TRACK 11 AUDIO
TITLE "Tomizawa Michie - Come Into Action"
TRACK 12 AUDIO
TITLE "Tomizawa Michie - Route California"
TRACK 01 AUDIO
TITLE "Remember"
TRACK 02 AUDIO
TITLE "Mad Machine"
TRACK 03 AUDIO
TITLE "I'll never forget"
TRACK 04 AUDIO
TITLE "Gentle rival"
TRACK 05 AUDIO
TITLE "Angels dancing in the thrill"
TRACK 06 AUDIO
TITLE "Touchdown into tomorrow"
TRACK 07 AUDIO
TITLE "Angel and devil's kiss"
TRACK 08 AUDIO
TITLE "Angel of loneliness"
TRACK 09 AUDIO
TITLE "Mysterious night"
TRACK 10 AUDIO
TITLE "Jumping heart"
TRACK 11 AUDIO
TITLE "Yes, do It!"
TRACK 12 AUDIO
TITLE "Bye Bye my Crisis"
Доп. информация:
Exact Audio Copy V0.99 prebeta 4 from 23. January 2008

Отчёт EAC об извлечении, выполненном 10. января 2009, 18:03

Various / Bubblegum Crisis Cvc Disc 1

Дисковод: PIONEER DVD-RW DVR-108 Adapter: 1 ID: 0

Режим чтения : Достоверность
Использование точного потока : Да
Отключение кэша аудио : Да
Использование указателей C2 : Нет

Коррекция смещения при чтении : 48
Способность читать области Lead-in и Lead-out : Нет
Заполнение пропущенных сэмплов тишиной : Да
Удаление блоков с тишиной в начале и конце : Нет
При вычислениях CRC использовались нулевые сэмплы : Да
Интерфейс : Установленный внешний ASPI-интерфейс

Выходной формат : Внутренние WAV-операции
Формат сэмплов : 44.100 Гц; 16 бит; стерео

TOC извлечённого CD

Трек | Старт | Длительность | Начальный сектор | Конечный сектор
---------------------------------------------------------------------
1 | 0:00.00 | 4:43.20 | 0 | 21244
2 | 4:43.20 | 4:00.57 | 21245 | 39301
3 | 8:44.02 | 4:16.70 | 39302 | 58571
4 | 13:00.72 | 4:05.73 | 58572 | 77019
5 | 17:06.70 | 3:47.67 | 77020 | 94111
6 | 20:54.62 | 4:43.60 | 94112 | 115396
7 | 25:38.47 | 3:22.30 | 115397 | 130576
8 | 29:01.02 | 4:38.53 | 130577 | 151479
9 | 33:39.55 | 3:51.30 | 151480 | 168834
10 | 37:31.10 | 6:09.47 | 168835 | 196556
11 | 43:40.57 | 4:58.58 | 196557 | 218964
12 | 48:39.40 | 4:29.05 | 218965 | 239144

Характеристики диапазона извлечения и сообщения об ошибках

Выбранный диапазон

Имя файла D:\temp\Various - Bubblegum Crisis Cvc Disc 1.wav

Пиковый уровень 100.0 %
Качество диапазона 100.0 %
CRC копии 02313066
Копирование... OK

Ошибок не произошло

AccurateRip: сводка

Трек 1 точность не определена (достоверность 2) [E5117436], AccurateRip вернул [03DFA743]
Трек 2 точность не определена (достоверность 2) [3DB22A99], AccurateRip вернул [F94567B5]
Трек 3 точность не определена (достоверность 2) [A86C7B6D], AccurateRip вернул [45856C5E]
Трек 4 точность не определена (достоверность 2) [1C076FE5], AccurateRip вернул [1934E0A9]
Трек 5 точность не определена (достоверность 2) [B8BD54E6], AccurateRip вернул [1B6DD273]
Трек 6 точность не определена (достоверность 2) [968366C6], AccurateRip вернул [E6CA2EB1]
Трек 7 точность не определена (достоверность 2) [9D844850], AccurateRip вернул [FF75A53E]
Трек 8 точность не определена (достоверность 2) [1178EF2D], AccurateRip вернул [2B3FBDAC]
Трек 9 точность не определена (достоверность 2) [1304FBE1], AccurateRip вернул [E834F1FE]
Трек 10 точность не определена (достоверность 2) [AE73129C], AccurateRip вернул [82EAC01A]
Трек 11 точность не определена (достоверность 2) [C3B6B092], AccurateRip вернул [F226ADF4]
Трек 12 точность не определена (достоверность 4) [80965DB4], AccurateRip вернул [25495B64]

Ни один трек не прошёл проверки на точность
В вашей базе может быть иной вариант штамповки диска

Конец отчёта
Exact Audio Copy V0.99 prebeta 4 from 23. January 2008

Отчёт EAC об извлечении, выполненном 10. января 2009, 18:13

Various / Bubblegum Crisis Cvc Disc 2

Дисковод: PIONEER DVD-RW DVR-108 Adapter: 1 ID: 0

Режим чтения : Достоверность
Использование точного потока : Да
Отключение кэша аудио : Да
Использование указателей C2 : Нет

Коррекция смещения при чтении : 48
Способность читать области Lead-in и Lead-out : Нет
Заполнение пропущенных сэмплов тишиной : Да
Удаление блоков с тишиной в начале и конце : Нет
При вычислениях CRC использовались нулевые сэмплы : Да
Интерфейс : Установленный внешний ASPI-интерфейс

Выходной формат : Внутренние WAV-операции
Формат сэмплов : 44.100 Гц; 16 бит; стерео

TOC извлечённого CD

Трек | Старт | Длительность | Начальный сектор | Конечный сектор
---------------------------------------------------------------------
1 | 0:00.00 | 4:04.35 | 0 | 18334
2 | 4:04.35 | 3:39.27 | 18335 | 34786
3 | 7:43.62 | 3:44.35 | 34787 | 51621
4 | 11:28.22 | 4:44.60 | 51622 | 72981
5 | 16:13.07 | 3:47.60 | 72982 | 90066
6 | 20:00.67 | 4:41.55 | 90067 | 111196
7 | 24:42.47 | 3:57.15 | 111197 | 128986
8 | 28:39.62 | 4:35.48 | 128987 | 149659
9 | 33:15.35 | 3:58.70 | 149660 | 167579
10 | 37:14.30 | 3:17.20 | 167580 | 182374
11 | 40:31.50 | 4:15.42 | 182375 | 201541
12 | 44:47.17 | 5:41.70 | 201542 | 227186

Характеристики диапазона извлечения и сообщения об ошибках

Выбранный диапазон

Имя файла D:\temp\Various - Bubblegum Crisis Cvc Disc 2.wav

Пиковый уровень 100.0 %
Качество диапазона 100.0 %
CRC копии D53DC88B
Копирование... OK

Ошибок не произошло

AccurateRip: сводка

Трек 1 точность не определена (достоверность 3) [79A3CD57], AccurateRip вернул [8E520A07]
Трек 2 точность не определена (достоверность 3) [70270F32], AccurateRip вернул [64EE1622]
Трек 3 точность не определена (достоверность 3) [082D19AC], AccurateRip вернул [4B99710C]
Трек 4 точность не определена (достоверность 3) [643C6EC6], AccurateRip вернул [8AE07666]
Трек 5 точность не определена (достоверность 3) [D46898D5], AccurateRip вернул [8D9360AD]
Трек 6 точность не определена (достоверность 3) [0ABA4F8F], AccurateRip вернул [40CAB66F]
Трек 7 точность не определена (достоверность 3) [1259D81F], AccurateRip вернул [B6461527]
Трек 8 точность не определена (достоверность 3) [73126450], AccurateRip вернул [38131B60]
Трек 9 точность не определена (достоверность 3) [DA8A42F7], AccurateRip вернул [E973FD77]
Трек 10 точность не определена (достоверность 3) [C3E14F9B], AccurateRip вернул [E7C062F3]
Трек 11 точность не определена (достоверность 3) [D5A1D01F], AccurateRip вернул [946E64AF]
Трек 12 точность не определена (достоверность 4) [E8FF4DBF], AccurateRip вернул [64F26C61]

Ни один трек не прошёл проверки на точность
В вашей базе может быть иной вариант штамповки диска

Конец отчёта
Exact Audio Copy V0.99 prebeta 4 from 23. January 2008

Отчёт EAC об извлечении, выполненном 10. января 2009, 18:22

Various / Bubblegum Crisis Cvc Disc 3

Дисковод: PIONEER DVD-RW DVR-108 Adapter: 1 ID: 0

Режим чтения : Достоверность
Использование точного потока : Да
Отключение кэша аудио : Да
Использование указателей C2 : Нет

Коррекция смещения при чтении : 48
Способность читать области Lead-in и Lead-out : Нет
Заполнение пропущенных сэмплов тишиной : Да
Удаление блоков с тишиной в начале и конце : Нет
При вычислениях CRC использовались нулевые сэмплы : Да
Интерфейс : Установленный внешний ASPI-интерфейс

Выходной формат : Внутренние WAV-операции
Формат сэмплов : 44.100 Гц; 16 бит; стерео

TOC извлечённого CD

Трек | Старт | Длительность | Начальный сектор | Конечный сектор
---------------------------------------------------------------------
1 | 0:00.00 | 4:47.30 | 0 | 21554
2 | 4:47.30 | 5:02.50 | 21555 | 44254
3 | 9:50.05 | 5:20.57 | 44255 | 68311
4 | 15:10.62 | 4:55.13 | 68312 | 90449
5 | 20:06.00 | 4:52.12 | 90450 | 112361
6 | 24:58.12 | 4:31.33 | 112362 | 132719
7 | 29:29.45 | 3:36.42 | 132720 | 148961
8 | 33:06.12 | 4:44.63 | 148962 | 170324
9 | 37:51.00 | 3:56.62 | 170325 | 188086
10 | 41:47.62 | 3:06.25 | 188087 | 202061
11 | 44:54.12 | 3:26.63 | 202062 | 217574
12 | 48:21.00 | 3:47.00 | 217575 | 234599

Характеристики диапазона извлечения и сообщения об ошибках

Выбранный диапазон

Имя файла D:\temp\Various - Bubblegum Crisis Cvc Disc 3.wav

Пиковый уровень 85.1 %
Качество диапазона 100.0 %
CRC копии 8823F44B
Копирование... OK

Ошибок не произошло

AccurateRip: сводка

Трек 1 точность не определена (достоверность 4) [71687455], AccurateRip вернул [25EB843D]
Трек 2 точность не определена (достоверность 4) [BF536006], AccurateRip вернул [90298D76]
Трек 3 точность не определена (достоверность 4) [EC8AE27F], AccurateRip вернул [342E98F7]
Трек 4 точность не определена (достоверность 4) [CC02F3F1], AccurateRip вернул [341BE891]
Трек 5 точность не определена (достоверность 4) [04DEB2E5], AccurateRip вернул [1E204235]
Трек 6 точность не определена (достоверность 4) [B2D96884], AccurateRip вернул [24DA933C]
Трек 7 точность не определена (достоверность 4) [7DD170AC], AccurateRip вернул [F916EF8C]
Трек 8 точность не определена (достоверность 4) [9105A402], AccurateRip вернул [08550C7A]
Трек 9 точность не определена (достоверность 4) [4EF8931B], AccurateRip вернул [285B10E3]
Трек 10 точность не определена (достоверность 3) [64388148], AccurateRip вернул [28D7DFA0]
Трек 11 точность не определена (достоверность 3) [5269A27D], AccurateRip вернул [ECF60645]
Трек 12 точность не определена (достоверность 4) [3ED67AB4], AccurateRip вернул [371A0132]

Ни один трек не прошёл проверки на точность
В вашей базе может быть иной вариант штамповки диска

Конец отчёта


Трекер:  [ 27-Мар-2011 10:30 ]

  

Скачать .torrent

Размер .torrent файла 20 KB


Размер: 956 MB
Хэш (hash) релиза: b0b2e43ecea60d18dbb03e3ccceb5c9172cb9e6f

Еще никто не оставлял запись к записи скачать торрент Bubblegum Crisis Complete Vocal Collection - 1998, APE . Будь первым!

!Обратная связь