La Tribu BluRayRip AC3 5.1 | Groups Tagged Business | Télécharger Part 7

Скачать порно через торрент Kagaku na Yatsura Все ради науки UnionPeer.org бесплатно онлайн HD качество

Скачать новое порно 2015, 2014 новинки через торрент UnionPeer.org

Порно торрент бесплатно ЮнионПир.орг

Статистика раздачи
Размер:  7.16 GB   |    Зарегистрирован:  4 года 2 месяца   |    .torrent скачан:  560 раз   |   
Раздают:  1  
   
загрузка...
 
Автор Сообщение

Galfimbul

avatar Galfimbul


Kagaku na Yatsura / カガクなヤツら / Все ради науки / Эти чокнутые учёные

Год производства: 2013 г.
Жанр: Ecchi, Big tits, Milk, Comedy, Harem, Tentacles
Серии: ep. 1
Продолжительность: 1х~25 min
Цензура: Отсутствует

Озвучка: Японская (Оригинальная)

Режиссер: Kaneko Hiraku
Автор оригинала: Yoshikawa Hideaki
Студия: Hoods Entertainment

Описание RUS: У Харуки есть два необычных друга. Аяна, над которой был проведён эксперимент. Теперь она имеет собачьи уши и хвост. И Айри – девушка киборг, у которой есть множество механических устройств. История начинается с того, что Харуки должен выбрать к какому клубу присоединится. К химическому клубу Аяны или механическому клубу Айри.

Описание ENG: A "science trouble" romantic comedy OVA bundled with the manga's fourth volume. It follows a high school boy named Komaba Haruki and his two girl friends: the cyborg girl Airi, and the half-dog girl Ayana. The two go to extremes with the power of science, which only gets Haruki involved in ecchi troubles.

Информационные ссылки: AniDB - MAL - World Art

Качество видео: Blu-Ray
Формат видео: Blu-Ray Video
Видео кодек: H.264/AVC
Аудио кодек: PCM
Видео: 1920х1080, (16:9), 23,976 кадров/сек, ~36,3 Мбит/сек
Аудио: JAP, PCM, 2 канала, 1536 Кбит/сек, 48,0 КГц
Меню: Отсутствует (хз.)
Общее
Идентификатор : 0 (0x0)
Полное имя : D:\Hentai\Kagaku na Yatsura (BDMV)\Kagaku na Yatsura (BDMV)\Kagaku na Yatsura\BDMV\STREAM\00002.m2ts
Формат : BDAV
Формат/Информация : Blu-ray Video
Размер файла : 6,94 Гбайт
Продолжительность : 25 м.
Режим общего битрейта : Переменный
Общий поток : 39,4 Мбит/сек
Максимальный общий битрейт : 48,0 Мбит/сек

Видео
Идентификатор : 4113 (0x1011)
Идентификатор меню : 1 (0x1)
Формат : AVC
Формат/Информация : Advanced Video Codec
Профиль формата : [email protected]
Параметр CABAC формата : Да
Параметр ReFrames формата : 2 кадра
Параметр GOP формата : M=3, N=22
Идентификатор кодека : 27
Продолжительность : 25 м.
Вид битрейта : Переменный
Битрейт : 36,3 Мбит/сек
Ширина : 1920 пикселей
Высота : 1080 пикселей
Соотношение сторон : 16:9
Частота кадров : 23,976 кадра/сек
Цветовое пространство : YUV
Субдискретизация насыщенности : 4:2:0
Битовая глубина : 8 бит
Тип развёртки : Прогрессивная
Бит/(Пиксели*Кадры) : 0.730
Размер потока : 6,39 Гбайт (92%)
Основные цвета : BT.709
Характеристики трансфера : BT.709
Коэффициенты матрицы : BT.709

Аудио
Идентификатор : 4352 (0x1100)
Идентификатор меню : 1 (0x1)
Формат : PCM
Параметр Endianness формата : Big
Параметр Sign формата : Signed
Режим смешивания : Blu-ray
Идентификатор кодека : 128
Продолжительность : 25 м.
Вид битрейта : Постоянный
Битрейт : 1536 Кбит/сек
Каналы : 2 канала
Расположение каналов : Front: L R
Частота : 48,0 КГц
Битовая глубина : 16 бит
Размер потока : 277 Мбайт (4%)


Трекер:  [ 17-Май-2014 19:18 ]

  

Скачать .torrent

Размер .torrent файла 19 KB


Размер: 7.16 GB
Хэш (hash) релиза: 7be3397991e2a271f73db114f7aead955ce72b2d

Еще никто не оставлял запись к записи скачать торрент Kagaku na Yatsura Все ради науки . Будь первым!

!Обратная связь