Temporada 2 | Stranger Things | [Adventure] Der Winterprinz Miras magisches Abenteuer 2015 German 1080p BluRay x264 - ENCOUNTER ...

Скачать порно через торрент The Human Centipede II UnionPeer.org бесплатно онлайн HD качество

Скачать новое порно 2015, 2014 новинки через торрент UnionPeer.org

Порно торрент бесплатно ЮнионПир.орг

Статистика раздачи
Размер:  696 MB   |    Зарегистрирован:  4 года 3 месяца   |    .torrent скачан:  398 раз   |   
Раздают:  1  
   
загрузка...
 
Автор Сообщение

Galfimbul

avatar Galfimbul


The Human Centipede II (Full Sequence) / Человеческая многоножка 2

Год производства: 2011 г.
Страна: Нидерланды
Жанр: BDSM, Copro, Fetish
Продолжительность: 01:27:57

Режиссер: Том Сикс / Tom Six
Студия: Six Entertainment

Перевод: Профессиональный (многоголосый, закадровый) [Позитив]
Язык: Русский
Субтитры: Отсутствуют

В ролях: Лоуренс Р. Харви, Эшлинн Йенни, Мэдди Блэк, Кэндес Кейн, Доминик Боррелли, Лукас Хансен,
Ли Николас Харрис, Дэн Бурман, Дэниэл Джуд Дженнис, Джорджия Гудрик

Описание: Мартин, маленький толстый мужчина в очках, страдающий от приступов астмы, коротает время в своей сторожке, раз за разом пересматривая DVD с первой частью фильма. Мартин буквально затирает несчастный диск, сексуально возбуждаясь от вида страданий людей на экране. Однажды он замечает парочку молодых людей, которые о чем-то громко спорят, распространяя гулкое эхо по пустынной автостоянке. Мерзкий карлик что-то задумывает, всматриваясь в экраны камер наблюдения. Недолго думая Мартин берет монтировку и отправляется к припаркованным автомобилям. Прострелив жертвам ноги, безумец вырубает парня и девушку ударом по голове и прячет в своем маленьком фургончике. Со временем, фургон становится пристанищем еще нескольких жертв. А Мартин арендует ангар, где собирается воплотить в жизнь свой давний план.

Официальный сайт

Доп. информация: Не смотреть гражданам до 18 лет, людям с неустойчивой психикой, беременным женщинам.

Видео: 624x352, 23.976 fps, Xvid, ~1106 kbps avg
Аудио: 48.1 kHz, AC3 Dolby Digital, 2/0 (L,R) ch, ~128 kbps avg
General
Complete name : C:\The Human Centipede II (Full Sequence) (2011).avi
Format : AVI
Format/Info : Audio Video Interleave
File size : 696 MiB
Duration : 1h 27mn
Overall bit rate : 1 106 Kbps
Writing application : VirtualDubMod 1.5.10.2 (build 2540/release)
Writing library : VirtualDubMod build 2540/release

Video
ID : 0
Format : MPEG-4 Visual
Format profile : Advanced [email protected]
Format settings, BVOP : Yes
Format settings, QPel : No
Format settings, GMC : No warppoints
Format settings, Matrix : Default (H.263)
Codec ID : XVID
Codec ID/Hint : XviD
Duration : 1h 27mn
Bit rate : 968 Kbps
Width : 624 pixels
Height : 352 pixels
Display aspect ratio : 16:9
Frame rate : 23.976 fps
Color space : YUV
Chroma subsampling : 4:2:0
Bit depth : 8 bits
Scan type : Progressive
Compression mode : Lossy
Bits/(Pixel*Frame) : 0.184
Stream size : 609 MiB (88%)
Writing library : XviD 57

Audio
ID : 1
Format : AC-3
Format/Info : Audio Coding 3
Mode extension : CM (complete main)
Format settings, Endianness : Big
Codec ID : 2000
Duration : 1h 27mn
Bit rate mode : Constant
Bit rate : 128 Kbps
Channel count : 2 channels
Channel positions : Front: L R
Sampling rate : 48.0 KHz
Bit depth : 16 bits
Compression mode : Lossy
Stream size : 80.5 MiB (12%)
Alignment : Split accross interleaves
Interleave, duration : 42 ms (1.00 video frame)
Interleave, preload duration : 500 ms


Трекер:  [ 24-Мар-2014 21:04 ]

  

Скачать .torrent

Размер .torrent файла 14 KB


Размер: 696 MB
Хэш (hash) релиза: a8e193b8a7be1ac549e8e07fc3d2de72b281a782

Торренты, похожие на The Human Centipede II скачать торрент

Форум Название Автор Размер S L Добавлен
Фетиш ·· The Human Centipede II (Full Sequence) / Человеческая многоножка 2 (Том Сикс / Tom Six, Six Entertainment) [2011 г., BDSM, Copro, Fetish, AVC 720p, BDRip][Rus+Eng+Sub][Extended] Galfimbul 966534201922 MB 0 0 1445015321

20:08

16-Окт-15

Фетиш ·· The Human Centipede II (Full Sequence) / Человеческая многоножка 2 (Том Сикс / Tom Six, Six Entertainment) [2011 г., BDSM, Copro, Fetish, HDRip][Rus+Eng] Galfimbul 14689771521.37 GB 0 0 1445013381

19:36

16-Окт-15

Нетрадиционное порно ·· The Human Centipede II / Человеческая многоножка 2 (Том Сикс / Tom Six, Six Entertainment) [2011 г., Copro, Fetish, BDRip 1080p] (Unrated Director's Cut / Полная режиссёрская версия) sub RU, EN Galfimbul 70401779226.56 GB 0 0 1441787453

11:30

9-Сен-15

Нетрадиционное порно ·· The Human Centipede II (Full Sequence) / Человеческая многоножка 2 (Том Сикс / Tom Six, Six Entertainment) [2011 г., bdsm, copro, fetish, 1080p, BDRip] [rus] MVO (Позитив) + Subs (Rus, Eng) Galfimbul 75623479997.04 GB 0 0 1430604212

01:03

3-Май-15

Нетрадиционное порно ·· The Human Centipede II (Full Sequence) / Человеческая многоножка 2 (Том Сикс / Tom Six, Six Entertainment) [2011 г., bdsm, copro, fetish, 720p, BDRip] [rus] MVO (Позитив) + Subs (Rus, Eng) Galfimbul 52363796214.88 GB 0 0 1430604199

01:03

3-Май-15

Нетрадиционное порно ·· The Human Centipede II (Full Sequence) (UNRATED DIRECTORS CUT) / Человеческая Многоножка 2 (Расширенная Режиссёрская Версия) (Том Сикс / Tom Six, Six Entertainment) [2011 г., BDSM, Horror, Thriller, Fetish, Copro, 720p] Galfimbul 35588444613.31 GB 0 0 1429482517

01:28

20-Апр-15

Нетрадиционное порно ·· The Human Centipede II (Full Sequence) / Человеческая Многоножка 2 (Том Сикс / Tom Six, Six Entertainment) [2011 г., BDSM, Horror, Thriller, Fetish, Copro, 720p, BDRip] [rus] [MVO(Позитив)] + [VO(den904)] Galfimbul 65285688056.08 GB 0 0 1429479182

00:33

20-Апр-15

Нетрадиционное порно ·· The Human Centipede II (Full Sequence) / Человеческая многоножка 2 (Том Сикс / Tom Six) [2011 г., Thriller, Copro, Fetish, DVD9] [rus] Galfimbul 47996108804.47 GB 0 0 1403046117

02:01

18-Июн-14

Нетрадиционное порно ·· The Human Centipede II (Full Sequence) / Человеческая многоножка 2 (Tom Six, Six Entertainment) [2011 г., BDSM, Copro, Fetish, BD Remux 1080p] [rus] (Позитив) Galfimbul 1947261695918.14 GB 0 0 1395408914

16:35

21-Мар-14

Фетиш ·· The Human Centipede II (Full Sequence) / Человеческая многоножка 2 (Том Сикс / Tom Six, Six Entertainment) [2011 г., bdsm, copro, fetish, 1080p, BDRip] LinGr 72245067186.73 GB 2 0 1386970329

00:32

14-Дек-13

Еще никто не оставлял запись к записи скачать торрент The Human Centipede II . Будь первым!

!Обратная связь