Mark Hamill | Comédie | Todos os vídeos

Скачать через торрент [VIDEO] Хоббит: Пустошь Смауга The Hobbit: The Desolation of Smaug бесплатно русская версия torrent активатор

Статистика раздачи
Размер:  937 MB   |    Зарегистрирован:  4 года 4 месяца   |    .torrent скачан:  48 раз   |   
Раздают:  1  
   
загрузка...
 
Автор Сообщение

alien.09

avatar alien.09


Хоббит: Пустошь Смауга / The Hobbit: The Desolation of Smaug



Год выпуска: 2013
Страна: США, Новая Зеландия
Жанр: Фэнтези, драма, приключения
Продолжительность: 02:41:17
Перевод: Профессиональный (полное дублирование) Чистый звук

Режиссер: Питер Джексон

В ролях: Мартин Фриман, Иэн МакКеллен, Ричард Армитидж, Джеймс Несбитт, Кен Стотт, Грэм МакТавиш, Уильям Кирчер, Стивен Хантер, Дин О’Горман, Эйдан Тернер

Описание: После успешного перехода через Туманные горы, Торин и компания вынуждены обратиться за помощью к могучему незнакомцу, прежде чем отправиться в опасное Лихолесье без волшебника. Их компания обязана завершить свое путешествие к Одинокой горе, где Бэггинсу нужно будет найти потайную дверь, чтобы добраться до клада Смауга…



Качество: HDRip
Формат: MP4
Видео кодек: H.264 | Видео: AVC at 679 Кбит/сек, 640 x 272 (2.398) at 23.976 fps
Аудио кодек: AAC | Аудио: AAC at 128 Кбит/сек, 2 канала, 48,0 КГц
 
Общее
Полное имя : D:\RG BroDimCom\Хоббит пустошь Смауга.mp4
Формат : MPEG-4
Профиль формата : Base Media
Идентификатор кодека : isom
Размер файла : 937 Мбайт
Продолжительность : 2 ч. 41 м.
Общий поток : 812 Кбит/сек
Название фильма : The.Hobbit.The.Desolation.Of.Smaug.[by Alien.09]
Дата кодирования : UTC 2014-03-23 17:26:11
Дата пометки : UTC 2014-03-23 17:26:11
Программа кодирования : XviD4PSP 6.0 / 54.29.105

Видео
Идентификатор : 1
Формат : AVC
Формат/Информация : Advanced Video Codec
Профиль формата : [email protected]
Параметр CABAC формата : Да
Параметр ReFrames формата : 3 кадра
Идентификатор кодека : avc1
Идентификатор кодека/Информация : Advanced Video Coding
Продолжительность : 2 ч. 41 м.
Битрейт : 679 Кбит/сек
Ширина : 640 пикселей
Высота : 272 пикселя
Соотношение сторон : 2,40:1
Соотношение сторон в оригинале : 2,40:1
Режим частоты кадров : Постоянный
Частота кадров : 23,976 кадра/сек
Цветовое пространство : YUV
Субдискретизация насыщенности : 4:2:0
Битовая глубина : 8 бит
Тип развёртки : Прогрессивная
Бит/(Пиксели*Кадры) : 0.163
Размер потока : 783 Мбайт (84%)
Библиотека кодирования : x264 core 128 r2216M 198a7ea
Настройки программы : cabac=1 / ref=3 / deblock=1:0:0 / analyse=0x1:0x131 / me=hex / subme=7 / psy=1 / psy_rd=1.00:0.20 / mixed_ref=1 / me_range=16 / chroma_me=1 / trellis=1 / 8x8dct=0 / cqm=0 / deadzone=21,11 / fast_pskip=1 / chroma_qp_offset=-3 / threads=4 / lookahead_threads=1 / sliced_threads=0 / nr=0 / decimate=1 / interlaced=0 / bluray_compat=0 / constrained_intra=0 / bframes=3 / b_pyramid=0 / b_adapt=2 / b_bias=0 / direct=3 / weightb=1 / open_gop=0 / weightp=0 / keyint=230 / keyint_min=23 / scenecut=40 / intra_refresh=0 / rc_lookahead=40 / rc=2pass / mbtree=1 / bitrate=679 / ratetol=1.0 / qcomp=0.60 / qpmin=10 / qpmax=51 / qpstep=4 / cplxblur=20.0 / qblur=0.5 / vbv_maxrate=5000 / vbv_bufsize=1835 / nal_hrd=none / ip_ratio=1.40 / aq=1:1.00
Язык : English
Дата кодирования : UTC 2014-03-23 17:26:11
Дата пометки : UTC 2014-03-23 17:26:11

Аудио
Идентификатор : 2
Формат : AAC
Формат/Информация : Advanced Audio Codec
Профиль формата : LC
Идентификатор кодека : 40
Продолжительность : 2 ч. 41 м.
Вид битрейта : Постоянный
Битрейт : 128 Кбит/сек
Каналы : 2 канала
Расположение каналов : Front: L R
Частота : 48,0 КГц
Метод сжатия : С потерями
Задержка видео : 42 мс.
Размер потока : 147 Мбайт (16%)
Язык : Russian
Дата кодирования : UTC 2014-03-23 17:26:11
Дата пометки : UTC 2014-03-23 17:26:11


Трекер:  [ 23-Мар-2014 23:15 ]

  

Скачать .torrent

Размер .torrent файла 19 KB


Размер: 937 MB
Хэш (hash) релиза: 60cb69d3b85e3077264d7850f24278f63521205d

Торренты, похожие на [VIDEO] Хоббит: Пустошь Смауга The Hobbit: The Desolation of Smaug скачать торрент

Форум Название Автор Размер S L Добавлен
Видео (Фильмы/Клипы) ·· [VIDEO] Хоббит: Пустошь Смауга / The Hobbit: The Desolation of Smaug (Питер Джексон / Peter Jackson) [2013г, США, Новая Зеландия, фэнтези, приключения, HDRip][MP4, 320x] Dub Galfimbul 592997815566 MB 0 0 1438842774

09:32

6-Авг-15

Еще никто не оставлял запись к записи скачать торрент [VIDEO] Хоббит: Пустошь Смауга The Hobbit: The Desolation of Smaug . Будь первым!

!Обратная связь