Chap 123 | Weekly Idol Episode 230 | Humans Season 3 torrent

Скачать через торрент [VIDEO] Хеллбой. Дилогия Hellboy. Dilogy бесплатно русская версия torrent активатор

Статистика раздачи
Размер:  1.37 GB   |    Зарегистрирован:  4 года 3 месяца   |    .torrent скачан:  63 раза   |   
Раздают:  1  
   
загрузка...
 
Автор Сообщение

alien.09

avatar alien.09


Хеллбой. Дилогия / Hellboy. Dilogy



Год выпуска: 2004, 2008
Страна: Германия, США
Жанр: Фантастика, фэнтези, боевик, приключения
Продолжительность: 02:01:58; 01:59:46
Перевод: Профессиональный (полное дублирование)

Режиссер: Гильермо дель Торо

В ролях: Рон Перлман, Джон Хёрт, Сэльма Блэр, Руперт Эванс,Даг Джонс, Карел Роден, Джон Александр, Джеффри Тэмбор, Даг Джонс, Брайан Стил, Джеймс Додд, Ладислав Беран, Бидди Ходсон, Сет МакФарлейн, Люк Госс, Анна Уолтон, Джеффри Тэмбор, Джон Хёрт

Качество: HDRip
Формат: MP4
Видео кодек: H.264 | Видео: AVC at 679 Кбит/сек, 640 x 352 (1.844) at 23.976 fps
Аудио кодек: AAC | Аудио: AAC at 127 Кбит/сек, 2 канала, 48,0 КГц

Хеллбой: Герой из пекла / Hellboy



Год выпуска: 2004
Страна: США
Жанр: фантастика, фэнтези, боевик, приключения
Продолжительность: 02:01:58
Перевод: Профессиональный (полное дублирование)
Режиссер: Гильермо дель Торо
В ролях: Рон Перлман, Джон Хёрт, Сэльма Блэр, Руперт Эванс, Карел Роден, Джеффри Тэмбор, Даг Джонс, Брайан Стил, Ладислав Беран, Бидди Ходсон и др.

Описание: Вторая мировая война. Нацисты терпят одно сокрушительное поражение за другим. В результате исследования оккультных ритуалов в супер-секретной лаборатории ученым, работающим на фашистский режим, удается поднять из небытия Демона Ада, который должен помочь переломить ход войны.

Но в научную лабораторию тайно проникает отряд союзников и поворачивает это мистическое и грозное оружие против нацистов. Однако никто из участников эксперимента и не предполагает, что врата потустороннего мира после открытия окажутся неподвластны людям, и им придется столкнуться с существами еще более опасными и непредсказуемыми, чем Демон Ада…



Качество: HDRip
Формат: MP4
Видео кодек: H.264 | Видео: AVC at 679 Кбит/сек, 640 x 352 (1.844) at 23.976 fps
Аудио кодек: AAC | Аудио: AAC at 127 Кбит/сек, 2 канала, 48,0 КГц
 
Общее
Полное имя : G:\Хеллбой дилогия 640х\Хеллбой Герой из пекла.mp4
Формат : MPEG-4
Профиль формата : Base Media
Идентификатор кодека : isom
Размер файла : 708 Мбайт
Продолжительность : 2 ч. 1 м.
Общий поток : 812 Кбит/сек
Название фильма : Hellboy[RG BroDim.com]
Дата кодирования : UTC 2014-03-05 02:24:17
Дата пометки : UTC 2014-03-05 02:24:17
Программа кодирования : XviD4PSP 6.0 / 54.29.105

Видео
Идентификатор : 1
Формат : AVC
Формат/Информация : Advanced Video Codec
Профиль формата : [email protected]
Параметр CABAC формата : Да
Параметр ReFrames формата : 3 кадра
Идентификатор кодека : avc1
Идентификатор кодека/Информация : Advanced Video Coding
Продолжительность : 2 ч. 1 м.
Битрейт : 679 Кбит/сек
Ширина : 640 пикселей
Высота : 352 пикселя
Соотношение сторон : 1,85:1
Режим частоты кадров : Постоянный
Частота кадров : 23,976 кадра/сек
Цветовое пространство : YUV
Субдискретизация насыщенности : 4:2:0
Битовая глубина : 8 бит
Тип развёртки : Прогрессивная
Бит/(Пиксели*Кадры) : 0.126
Размер потока : 592 Мбайт (84%)
Библиотека кодирования : x264 core 128 r2216M 198a7ea
Настройки программы : cabac=1 / ref=3 / deblock=1:0:0 / analyse=0x1:0x131 / me=hex / subme=7 / psy=1 / psy_rd=1.00:0.20 / mixed_ref=1 / me_range=16 / chroma_me=1 / trellis=1 / 8x8dct=0 / cqm=0 / deadzone=21,11 / fast_pskip=1 / chroma_qp_offset=-3 / threads=4 / lookahead_threads=1 / sliced_threads=0 / nr=0 / decimate=1 / interlaced=0 / bluray_compat=0 / constrained_intra=0 / bframes=3 / b_pyramid=0 / b_adapt=2 / b_bias=0 / direct=3 / weightb=1 / open_gop=0 / weightp=0 / keyint=230 / keyint_min=23 / scenecut=40 / intra_refresh=0 / rc_lookahead=40 / rc=2pass / mbtree=1 / bitrate=679 / ratetol=1.0 / qcomp=0.60 / qpmin=10 / qpmax=51 / qpstep=4 / cplxblur=20.0 / qblur=0.5 / vbv_maxrate=5000 / vbv_bufsize=1835 / nal_hrd=none / ip_ratio=1.40 / aq=1:1.00
Язык : English
Дата кодирования : UTC 2014-03-05 02:24:17
Дата пометки : UTC 2014-03-05 02:24:17

Аудио
Идентификатор : 2
Формат : AAC
Формат/Информация : Advanced Audio Codec
Профиль формата : LC
Идентификатор кодека : 40
Продолжительность : 2 ч. 1 м.
Вид битрейта : Постоянный
Битрейт : 128 Кбит/сек
Каналы : 2 канала
Расположение каналов : Front: L R
Частота : 44,1 КГц
Метод сжатия : С потерями
Задержка видео : 42 мс.
Размер потока : 111 Мбайт (16%)
Язык : Russian
Дата кодирования : UTC 2014-03-05 02:24:17
Дата пометки : UTC 2014-03-05 02:24:17
Хеллбой II: Золотая армия / Hellboy II: The Golden Army



Год выпуска: 2008
Страна: США, Германия
Жанр: фантастика, фэнтези, боевик, приключения
Продолжительность: 01:59:46
Перевод: Профессиональный (полное дублирование)
Режиссер: Гильермо дель Торо
В ролях: Рон Перлман, Сэльма Блэр, Даг Джонс, Джон Александр, Джеймс Додд, Сет МакФарлейн, Люк Госс, Анна Уолтон, Джеффри Тэмбор, Джон Хёрт и др.

Описание: После того как древнее перемирие между человечеством и тайным миром было нарушено, на Земле вот-вот разверзнется ад. Безжалостный лидер, вхожий в оба мира, бросает вызов своей крови и пробуждает на свет неодолимую армию чудовищ.

Настало время самому Хэллбою сразиться с беспощадным диктатором и его воинами. Вместе со своей пополняющей ряды командой «Бюро Паранормальных Исследований и Развития» он будет бороздить границы двух миров — нашего и скрытого, где самые невероятные существа обретают плоть. Хэллбою, порожденному обоими мирами, но не принадлежащему ни одному из них, предстоит выбирать между жизнью, которую он знает, и неизвестностью новой судьбы...



Качество: HDRip
Формат: MP4
Видео кодек: H.264 | Видео: AVC at 679 Кбит/сек, 640 x 352 (1.844) at 23.976 fps
Аудио кодек: AAC | Аудио: AAC at 127 Кбит/сек, 2 канала, 48,0 КГц
 
Общее
Полное имя : G:\Хеллбой дилогия 640х\Хеллбой 2 Золотая армия.mp4
Формат : MPEG-4
Профиль формата : Base Media
Идентификатор кодека : isom
Размер файла : 695 Мбайт
Продолжительность : 1 ч. 59 м.
Общий поток : 811 Кбит/сек
Название фильма : Hellboy-II:GoldenArmy[RG BroDim.com]
Дата кодирования : UTC 2014-03-05 02:36:49
Дата пометки : UTC 2014-03-05 02:36:49
Программа кодирования : XviD4PSP 6.0 / 54.29.105

Видео
Идентификатор : 1
Формат : AVC
Формат/Информация : Advanced Video Codec
Профиль формата : [email protected]
Параметр CABAC формата : Да
Параметр ReFrames формата : 3 кадра
Идентификатор кодека : avc1
Идентификатор кодека/Информация : Advanced Video Coding
Продолжительность : 1 ч. 59 м.
Битрейт : 679 Кбит/сек
Ширина : 640 пикселей
Высота : 352 пикселя
Соотношение сторон : 1,85:1
Режим частоты кадров : Постоянный
Частота кадров : 23,976 кадра/сек
Цветовое пространство : YUV
Субдискретизация насыщенности : 4:2:0
Битовая глубина : 8 бит
Тип развёртки : Прогрессивная
Бит/(Пиксели*Кадры) : 0.126
Размер потока : 581 Мбайт (84%)
Библиотека кодирования : x264 core 128 r2216M 198a7ea
Настройки программы : cabac=1 / ref=3 / deblock=1:0:0 / analyse=0x1:0x131 / me=hex / subme=7 / psy=1 / psy_rd=1.00:0.20 / mixed_ref=1 / me_range=16 / chroma_me=1 / trellis=1 / 8x8dct=0 / cqm=0 / deadzone=21,11 / fast_pskip=1 / chroma_qp_offset=-3 / threads=4 / lookahead_threads=1 / sliced_threads=0 / nr=0 / decimate=1 / interlaced=0 / bluray_compat=0 / constrained_intra=0 / bframes=3 / b_pyramid=0 / b_adapt=2 / b_bias=0 / direct=3 / weightb=1 / open_gop=0 / weightp=0 / keyint=230 / keyint_min=23 / scenecut=40 / intra_refresh=0 / rc_lookahead=40 / rc=2pass / mbtree=1 / bitrate=679 / ratetol=1.0 / qcomp=0.60 / qpmin=10 / qpmax=51 / qpstep=4 / cplxblur=20.0 / qblur=0.5 / vbv_maxrate=5000 / vbv_bufsize=1835 / nal_hrd=none / ip_ratio=1.40 / aq=1:1.00
Язык : English
Дата кодирования : UTC 2014-03-05 02:36:49
Дата пометки : UTC 2014-03-05 02:36:49

Аудио
Идентификатор : 2
Формат : AAC
Формат/Информация : Advanced Audio Codec
Профиль формата : LC
Идентификатор кодека : 40
Продолжительность : 1 ч. 59 м.
Вид битрейта : Постоянный
Битрейт : 128 Кбит/сек
Каналы : 2 канала
Расположение каналов : Front: L R
Частота : 48,0 КГц
Метод сжатия : С потерями
Задержка видео : 42 мс.
Размер потока : 110 Мбайт (16%)
Язык : Russian
Дата кодирования : UTC 2014-03-05 02:36:49
Дата пометки : UTC 2014-03-05 02:36:49


Трекер:  [ 22-Мар-2014 23:52 ]

  

Скачать .torrent

Размер .torrent файла 14 KB


Размер: 1.37 GB
Хэш (hash) релиза: 02f7d9ca81e24159412dfca95d3ed083cb8eece3

Торренты, похожие на [VIDEO] Хеллбой. Дилогия Hellboy. Dilogy скачать торрент

Форум Название Автор Размер S L Добавлен
Видео (Фильмы/Клипы) ·· [VIDEO] Хеллбой: Дилогия / Hellboy: Dilogy (Гильермо Дель Торо / Guillermo del Toro) [2004 - 2008, фантастика, фэнтези, боевик, BDRip] [MP4, 960x] [Theatrical cut] Dub, MVO Kravec, VO Королёв, VO Гаврилов, VO Живов, Original, Sub (rus, eng) Galfimbul 41021777763.82 GB 0 0 1492175372

16:09

14-Апр-17

Еще никто не оставлял запись к записи скачать торрент [VIDEO] Хеллбой. Дилогия Hellboy. Dilogy . Будь первым!

!Обратная связь