Assassins Bullet (Sofia) DVDRIP | Madeline's Madeline | Production IMS

Скачать через торрент [VIDEO] Поворот не туда: Квадрология Wrong Turn: Quadrology бесплатно русская версия torrent активатор

Статистика раздачи
Размер:  3.91 GB   |    Зарегистрирован:  4 года 3 месяца   |    .torrent скачан:  69 раз   |   
Раздают:  1  
   
загрузка...
 
Автор Сообщение

Galfimbul

avatar Galfimbul


Поворот не туда: Трилогия / Wrong Turn: Trilogy
Год выпуска: 2003, 2007, 2009

Страна: Германия, США, Канада
Жанр: ужасы, триллер
Продолжительность: 01:24:14, 01:36:56, 1:32:02
Перевод: 1ая часть: Профессиональный (полное дублирование), 2ая часть: Профессиональный (полное дублирование), 3я часть: Профессиональный (многоголосый закадровый)
Русские субтитры: нет
Режиссер: 1ая часть: Роб Шмидт / Rob Schmidt, 2ая часть: Джо Линч / Joe Lynch, 3я часть: Деклан О’Брайэн / Declan O'Brien
В ролях: Десмонд Харрингтон, Элиза Душку, Эммануэль Шрики, Джереми Систо, Кевин Зегерс, Линди Бут, Джулиан Ричингс, Гэрри Роббинс, Тед Кларк, Ивонн Годри
Описание: 1ая часть: Затерявшись в лесах Западной Вирджинии в результате рокового стечения обстоятельств, группа молодых людей пытается добраться до ближайшего телефона. Но вместо телефона им суждено найти дом в горах, увешанный страшным оружием и отвратительными трофеями…

Кто, или что живет в этом доме? Молодые люди начинают понимать, что все их злоключения — способ загнать дичь в ловушку, где они — это дичь, а зловещие охотники — обитатели дома…

2ая часть: В печально известном по событиям первого фильма лесу, местная телекомпания снимает реалити-шоу в духе «Последнего героя». Участникам проекта предстоит вести образ жизни первобытных племен без современных средств связи… на радость обитающим неподалеку каннибалам.

3я часть: В начале, группа туристов узнаёт, что комары - это не самое страшное, что может укусить в лесной чаще. Но самое интересное начинается, когда посреди леса из-под конвоя сбегают самые кровожадные убийцы страны, осуждённые на смертную казнь. Кто же, в итоге, победит? Мутанты или убийцы? Как бы то ни было, "Поворот не туда 3" полон зубодробительных и телораздирающих моментов до самого конца.

Качество: HDRip
Формат: MP4
Видео кодек: XviD
Аудио кодек: AAC
Видео: 800x448 (16:9) 23.976fps 1400Kbps
Аудио: AAC 48000Hz 128Kbps stereo 2ch
Для 1ой части:
GeneralComplete name : C:\Cinema\Мои раздачи\Wrong Turn Quadrology 800x\Wrong Turn 2003.mp4Format : MPEG-4Format profile : Base Media / Version 2Codec ID : mp42File size : 919 MiBDuration : 1h 24mnOverall bit rate mode : VariableOverall bit rate : 1 526 KbpsEncoded date : UTC 2011-10-25 16:53:17Tagged date : UTC 2011-10-25 16:59:45Writing application : mp4creator 1.6.1d

VideoID : 1Format : MPEG-4 VisualFormat profile : [email protected] settings, BVOP : NoFormat settings, QPel : NoFormat settings, GMC : No warppointsFormat settings, Matrix : Default (H.263)Codec ID : 20Duration : 1h 24mnBit rate mode : VariableBit rate : 1 398 KbpsMaximum bit rate : 5 877 KbpsWidth : 800 pixelsHeight : 448 pixelsDisplay aspect ratio : 16:9Frame rate mode : VariableFrame rate : 23.976 fpsMinimum frame rate : 23.974 fpsMaximum frame rate : 23.981 fpsColor space : YUVChroma subsampling : 4:2:0Bit depth : 8 bitsScan type : ProgressiveCompression mode : LossyBits/(Pixel*Frame) : 0.163Stream size : 842 MiB (92%)Language : EnglishEncoded date : UTC 2011-10-25 16:53:17Tagged date : UTC 2011-10-25 16:58:23

AudioID : 2Format : AACFormat/Info : Advanced Audio CodecFormat profile : LCCodec ID : 40Duration : 1h 24mnBit rate mode : VariableBit rate : 125 KbpsMaximum bit rate : 250 KbpsChannel(s) : 2 channelsChannel positions : Front: L RSampling rate : 48.0 KHzCompression mode : LossyStream size : 75.5 MiB (8%)Language : EnglishEncoded date : UTC 2011-10-25 16:59:41Tagged date : UTC 2011-10-25 16:59:45

Для 2ой части:
GeneralComplete name : C:\Cinema\Мои раздачи\Wrong Turn Quadrology 800x\Wrong Turn 2 2007.mp4Format : MPEG-4Format profile : Base Media / Version 2Codec ID : mp42File size : 1.03 GiBDuration : 1h 36mnOverall bit rate mode : VariableOverall bit rate : 1 528 KbpsEncoded date : UTC 2011-10-26 04:39:40Tagged date : UTC 2011-10-26 04:46:09Writing application : mp4creator 1.6.1d

VideoID : 1Format : MPEG-4 VisualFormat profile : [email protected] settings, BVOP : NoFormat settings, QPel : NoFormat settings, GMC : No warppointsFormat settings, Matrix : Default (H.263)Codec ID : 20Duration : 1h 36mnBit rate mode : VariableBit rate : 1 399 KbpsMaximum bit rate : 5 447 KbpsWidth : 800 pixelsHeight : 448 pixelsDisplay aspect ratio : 16:9Frame rate mode : VariableFrame rate : 23.976 fpsMinimum frame rate : 23.974 fpsMaximum frame rate : 23.981 fpsColor space : YUVChroma subsampling : 4:2:0Bit depth : 8 bitsScan type : ProgressiveCompression mode : LossyBits/(Pixel*Frame) : 0.163Stream size : 970 MiB (92%)Language : EnglishEncoded date : UTC 2011-10-26 04:39:40Tagged date : UTC 2011-10-26 04:44:41

AudioID : 2Format : AACFormat/Info : Advanced Audio CodecFormat profile : LCCodec ID : 40Duration : 1h 36mnBit rate mode : VariableBit rate : 125 KbpsMaximum bit rate : 244 Kbps

Для 3ей части:
GeneralComplete name : C:\Cinema\Мои раздачи\Wrong Turn Quadrology 800x\Wrong Turn 3 2009 BDRemux.mp4Format : MPEG-4Format profile : Base Media / Version 2Codec ID : mp42File size : 1 006 MiBDuration : 1h 32mnOverall bit rate mode : VariableOverall bit rate : 1 528 KbpsEncoded date : UTC 2011-10-30 16:00:26Tagged date : UTC 2011-10-30 16:05:39Writing application : mp4creator 1.6.1d

VideoID : 1Format : MPEG-4 VisualFormat profile : [email protected] settings, BVOP : NoFormat settings, QPel : NoFormat settings, GMC : No warppointsFormat settings, Matrix : Default (H.263)Codec ID : 20Duration : 1h 32mnBit rate mode : VariableBit rate : 1 400 KbpsMaximum bit rate : 4 316 KbpsWidth : 800 pixelsHeight : 448 pixelsDisplay aspect ratio : 16:9Frame rate mode : VariableFrame rate : 23.976 fpsMinimum frame rate : 23.974 fpsMaximum frame rate : 23.981 fpsColor space : YUVChroma subsampling : 4:2:0Bit depth : 8 bitsScan type : ProgressiveCompression mode : LossyBits/(Pixel*Frame) : 0.163Stream size : 921 MiB (92%)Language : EnglishEncoded date : UTC 2011-10-30 16:00:26Tagged date : UTC 2011-10-30 16:04:26

AudioID : 2Format : AACFormat/Info : Advanced Audio CodecFormat profile : LCCodec ID : 40Duration : 1h 32mnBit rate mode : VariableBit rate : 125 KbpsMaximum bit rate : 221 KbpsChannel(s) : 2 channelsChannel positions : Front: L RSampling rate : 48.0 KHzCompression mode : LossyStream size : 82.5 MiB (8%)Language : EnglishEncoded date : UTC 2011-10-30 16:05:37Tagged date : UTC 2011-10-30 16:05:39
ПриквелПоворот не туда: Кровавое Начало / Wrong Turn: Bloody Beginnings

Год выпуска: 2011

Страна: США, Германия
Жанр: Ужасы, боевик, детектив
Продолжительность: 01:33:22
Перевод: Любительский (oдноголосный закадровый)
Русские субтитры: нет
Режиссер: Деклан О’Брайэн / Declan O'Brien
В ролях: Дин Армстронг, Блейн Кипурда, Теника Дэвис, Дэйв Хармс, Кристен Харрис, Скотт Джонсон, Саманта Кендрик, Арни Макферсон, Дженнифер Пудавик, Дэн Скин
Описание: Группа друзей отправляется на снегоходах на зимнюю прогулку. Во время метели они заблудились и свернули не туда. Встреча с мутантами-каннибалами стала для героев большой неожиданностью…
Качество: HDRip
Формат: MP4
Видео кодек: XviD
Аудио кодек: AAC
Видео: 800x448 (16:9) 23.976fps 1400Kbps
Аудио: AAC 48000Hz 128Kbps stereo 2ch
GeneralComplete name : C:\Cinema\Мои раздачи\Wrong Turn Quadrology 800x\Wrong turn 4 2011.mp4Format : MPEG-4Format profile : Base Media / Version 2Codec ID : mp42File size : 1 020 MiBDuration : 1h 33mnOverall bit rate mode : VariableOverall bit rate : 1 527 KbpsEncoded date : UTC 2011-10-25 05:58:40Tagged date : UTC 2011-10-25 06:06:22Writing application : mp4creator 1.6.1d

VideoID : 1Format : MPEG-4 VisualFormat profile : [email protected] settings, BVOP : NoFormat settings, QPel : NoFormat settings, GMC : No warppointsFormat settings, Matrix : Default (H.263)Codec ID : 20Duration : 1h 33mnBit rate mode : VariableBit rate : 1 399 KbpsMaximum bit rate : 9 214 KbpsWidth : 800 pixelsHeight : 448 pixelsDisplay aspect ratio : 16:9Frame rate mode : VariableFrame rate : 23.976 fpsMinimum frame rate : 23.974 fpsMaximum frame rate : 23.981 fpsColor space : YUVChroma subsampling : 4:2:0Bit depth : 8 bitsScan type : ProgressiveCompression mode : LossyBits/(Pixel*Frame) : 0.163Stream size : 934 MiB (92%)Language : EnglishEncoded date : UTC 2011-10-25 05:58:40Tagged date : UTC 2011-10-25 06:04:38

AudioID : 2Format : AACFormat/Info : Advanced Audio CodecFormat profile : LCCodec ID : 40Duration : 1h 33mnBit rate mode : VariableBit rate : 125 KbpsMaximum bit rate : 228 KbpsChannel(s) : 2 channelsChannel positions : Front: L RSampling rate : 48.0 KHzCompression mode : LossyStream size : 83.7 MiB (8%)Language : EnglishEncoded date : UTC 2011-10-25 06:06:18Tagged date : UTC 2011-10-25 06:06:22



Трекер:  [ 21-Мар-2014 23:20 ]

  

Скачать .torrent

Размер .torrent файла 20 KB


Размер: 3.91 GB
Хэш (hash) релиза: b813a9dcc549c2528b31980a38186b07079e0c89

Еще никто не оставлял запись к записи скачать торрент [VIDEO] Поворот не туда: Квадрология Wrong Turn: Quadrology . Будь первым!

!Обратная связь