Miss Korea | Империя Мертвецов / Shisha no Teikoku / The Empire of Corpses (2015) BDRip 720p | AniDub, AniChaos | Login to leave a comment

Скачать через торрент [MULT, MP-4, 640х] Холодное сердце Frozen бесплатно русская версия torrent активатор

Статистика раздачи
Размер:  595 MB   |    Зарегистрирован:  4 года 3 месяца   |    .torrent скачан:  58 раз   |   
Раздают:  1  
   
загрузка...
 
Автор Сообщение

alien.09

avatar alien.09


Холодное сердце / Frozen



Год выпуска: 2013
Страна: США
Жанр: мультфильм, мюзикл, фэнтези
Продолжительность: 01:42:33
Перевод: Профессиональный (полное дублирование) iTunes Russia
Режиссер: Крис Бак, Дженнифер Ли
В ролях: Кристен Белл, Идина Мензел, Джонатан Грофф, Джош Гад, Сантино Фонтана, Алан Тьюдик, Киаран Хайндс, Крис Уильямс, Стивен Дж. Андерсон, Майа Уилсон

Описание: Когда древнее предсказание сбывается и королевство погружается в объятия вечной зимы, трое бесстрашных героев - принцесса Анна, отважный Кристофф и его верный олень Свен - отправляются в горы, чтобы найти сестру Анны, Эльзу, которая может снять со страны леденящее заклятие. По пути их ждет множество увлекательных сюрпризов и захватывающих приключений: встреча с мистическими троллями, знакомство с очаровательным снеговиком по имени Олаф, горные вершины покруче Эвереста и магия в каждой снежинке. Анне и Кристоффу предстоит сплотиться и противостоять могучей стихии, чтобы спасти королевство и тех, кто им дорог...



Качество: WEB-DLRip
Формат: MP-4
Видео кодек: H.264 | Видео: AVC at 679 Кбит/сек, 640 x 288 (2.253) at 23.976 fps
Аудио кодек: AAC | Аудио: AAC at 127 Кбит/сек, 2 канала, 48,0 КГц
 
Общее
Полное имя : G:\Холодное сердце.mp4
Формат : MPEG-4
Профиль формата : Base Media
Идентификатор кодека : isom
Размер файла : 595 Мбайт
Продолжительность : 1 ч. 42 м.
Общий поток : 811 Кбит/сек
Название фильма : Frozen[by Alien.09]
Дата кодирования : UTC 2014-03-20 19:58:51
Дата пометки : UTC 2014-03-20 19:58:51
Программа кодирования : XviD4PSP 6.0 / 54.29.105

Видео
Идентификатор : 1
Формат : AVC
Формат/Информация : Advanced Video Codec
Профиль формата : [email protected]
Параметр CABAC формата : Да
Параметр ReFrames формата : 3 кадра
Идентификатор кодека : avc1
Идентификатор кодека/Информация : Advanced Video Coding
Продолжительность : 1 ч. 42 м.
Битрейт : 679 Кбит/сек
Ширина : 640 пикселей
Высота : 288 пикселей
Соотношение сторон : 2,25:1
Соотношение сторон в оригинале : 2,25:1
Режим частоты кадров : Постоянный
Частота кадров : 23,976 кадра/сек
Цветовое пространство : YUV
Субдискретизация насыщенности : 4:2:0
Битовая глубина : 8 бит
Тип развёртки : Прогрессивная
Бит/(Пиксели*Кадры) : 0.154
Размер потока : 498 Мбайт (84%)
Библиотека кодирования : x264 core 128 r2216M 198a7ea
Настройки программы : cabac=1 / ref=3 / deblock=1:0:0 / analyse=0x1:0x131 / me=hex / subme=7 / psy=1 / psy_rd=1.00:0.20 / mixed_ref=1 / me_range=16 / chroma_me=1 / trellis=1 / 8x8dct=0 / cqm=0 / deadzone=21,11 / fast_pskip=1 / chroma_qp_offset=-3 / threads=4 / lookahead_threads=1 / sliced_threads=0 / nr=0 / decimate=1 / interlaced=0 / bluray_compat=0 / constrained_intra=0 / bframes=3 / b_pyramid=0 / b_adapt=2 / b_bias=0 / direct=3 / weightb=1 / open_gop=0 / weightp=0 / keyint=230 / keyint_min=23 / scenecut=40 / intra_refresh=0 / rc_lookahead=40 / rc=2pass / mbtree=1 / bitrate=679 / ratetol=1.0 / qcomp=0.60 / qpmin=10 / qpmax=51 / qpstep=4 / cplxblur=20.0 / qblur=0.5 / vbv_maxrate=5000 / vbv_bufsize=1835 / nal_hrd=none / ip_ratio=1.40 / aq=1:1.00
Язык : English
Дата кодирования : UTC 2014-03-20 19:58:51
Дата пометки : UTC 2014-03-20 19:58:51

Аудио
Идентификатор : 2
Формат : AAC
Формат/Информация : Advanced Audio Codec
Профиль формата : LC
Идентификатор кодека : 40
Продолжительность : 1 ч. 42 м.
Вид битрейта : Постоянный
Битрейт : 127 Кбит/сек
Каналы : 2 канала
Расположение каналов : Front: L R
Частота : 48,0 КГц
Метод сжатия : С потерями
Задержка видео : 42 мс.
Размер потока : 93,5 Мбайт (16%)
Язык : Russian
Дата кодирования : UTC 2014-03-20 19:58:51
Дата пометки : UTC 2014-03-20 19:58:51


Трекер:  [ 21-Мар-2014 01:47 ]

  

Скачать .torrent

Размер .torrent файла 12 KB


Размер: 595 MB
Хэш (hash) релиза: 9d4e50471f3623a36780a666887d101e5965405d

Еще никто не оставлял запись к записи скачать торрент [MULT, MP-4, 640х] Холодное сердце Frozen . Будь первым!

!Обратная связь