Die Gobots | No Country For Old Men | 17th July 2018

Скачать через торрент [VIDEO, MP-4] Вий бесплатно русская версия torrent активатор

Статистика раздачи
Размер:  742 MB   |    Зарегистрирован:  4 года 4 месяца   |    .torrent скачан:  86 раз   |   
Раздают:  1  
   
загрузка...
 
Автор Сообщение

alien.09

avatar alien.09


Вий



Год выпуска: 2014
Страна: Германия, Великобритания, Чехия, Украина, Россия
Жанр: Фэнтези, триллер, приключения
Продолжительность: 02:09:57
Перевод: Не требуется, оригинал

Режиссер: Олег Степченко



В ролях: Джейсон Флеминг, Алексей Чадов, Агния Дитковските, Андрей Смоляков, Игорь Жижикин, Олег Тактаров, Валерий Золотухин, Нина Русланова, Юрий Цурило, Александр Яковлев
Описание: Начало XVIII века. Картограф Джонатан Грин совершает научное путешествие из Европы на Восток. Проследовав через Трансильванию и преодолев Карпатские горы, он попадает в затерянную среди непроходимых лесов деревушку. Только воля случая и густой туман могли занести его в это проклятое место. Народ, живущий здесь, не похож ни на один доселе виданный путешественником. Эти люди, оградив себя от остального мира глубоким рвом, наивно верят, что смогут уберечься от нечисти, не понимая, что она уже давно поселилась в их душах и только ждёт случая, чтобы вырваться наружу. Даже в страшном сне учёный-материалист не предполагал, что здесь ему уготована встреча с верным слугой дьявола...
релиз от RG BroDim
Качество: WEB-DLRip
Формат: MPEG
Видео кодек: H.264
Видео: AVC at 742 Кбит/сек, 640 x 352 (1.778) at 24.000 fps
Аудио кодек: AAC
Аудио: AAC at 128 Кбит/сек, 2 канала, 48,0 КГц
 
Общее
Полное имя : G:\Вий.mp4
Формат : MPEG-4
Профиль формата : Base Media
Идентификатор кодека : isom
Размер файла : 742 Мбайт
Продолжительность : 2 ч. 7 м.
Общий поток : 812 Кбит/сек
Название фильма : [RG BroDim.com]
Дата кодирования : UTC 2014-03-02 13:28:46
Дата пометки : UTC 2014-03-02 13:28:46
Программа кодирования : XviD4PSP 6.0 / 54.29.105
Видео
Идентификатор : 1
Формат : AVC
Формат/Информация : Advanced Video Codec
Профиль формата : [email protected]
Параметр CABAC формата : Да
Параметр ReFrames формата : 3 кадра
Идентификатор кодека : avc1
Идентификатор кодека/Информация : Advanced Video Coding
Продолжительность : 2 ч. 7 м.
Битрейт : 679 Кбит/сек
Ширина : 640 пикселей
Высота : 352 пикселя
Соотношение сторон : 16:9
Режим частоты кадров : Постоянный
Частота кадров : 24,000 кадра/сек
Цветовое пространство : YUV
Субдискретизация насыщенности : 4:2:0
Битовая глубина : 8 бит
Тип развёртки : Прогрессивная
Бит/(Пиксели*Кадры) : 0.126
Размер потока : 620 Мбайт (84%)
Библиотека кодирования : x264 core 128 r2216M 198a7ea
Настройки программы : cabac=1 / ref=3 / deblock=1:0:0 / analyse=0x1:0x131 / me=hex / subme=7 / psy=1 / psy_rd=1.00:0.20 / mixed_ref=1 / me_range=16 / chroma_me=1 / trellis=1 / 8x8dct=0 / cqm=0 / deadzone=21,11 / fast_pskip=1 / chroma_qp_offset=-3 / threads=4 / lookahead_threads=1 / sliced_threads=0 / nr=0 / decimate=1 / interlaced=0 / bluray_compat=0 / constrained_intra=0 / bframes=3 / b_pyramid=0 / b_adapt=2 / b_bias=0 / direct=3 / weightb=1 / open_gop=0 / weightp=0 / keyint=240 / keyint_min=24 / scenecut=40 / intra_refresh=0 / rc_lookahead=40 / rc=2pass / mbtree=1 / bitrate=679 / ratetol=1.0 / qcomp=0.60 / qpmin=10 / qpmax=51 / qpstep=4 / cplxblur=20.0 / qblur=0.5 / vbv_maxrate=5000 / vbv_bufsize=1835 / nal_hrd=none / ip_ratio=1.40 / aq=1:1.00
Язык : Russian
Дата кодирования : UTC 2014-03-02 13:28:46
Дата пометки : UTC 2014-03-02 13:28:46
Аудио
Идентификатор : 2
Формат : AAC
Формат/Информация : Advanced Audio Codec
Профиль формата : LC
Идентификатор кодека : 40
Продолжительность : 2 ч. 7 м.
Вид битрейта : Постоянный
Битрейт : 128 Кбит/сек
Каналы : 2 канала
Расположение каналов : Front: L R
Частота : 48,0 КГц
Метод сжатия : С потерями
Задержка видео : 42 мс.
Размер потока : 117 Мбайт (16%)
Язык : Russian
Дата кодирования : UTC 2014-03-02 13:28:46
Дата пометки : UTC 2014-03-02 13:28:46


Трекер:  [ 04-Мар-2014 01:35 ]

  

Скачать .torrent

Размер .torrent файла 15 KB


Размер: 742 MB
Хэш (hash) релиза: 6f69eb1fbce3be5abfa3a51f3b35a04a563b48f1

Еще никто не оставлял запись к записи скачать торрент [VIDEO, MP-4] Вий . Будь первым!

!Обратная связь