Mikakunin de Shinkoukei | A Quiet Place 2018 BluRay 1080p DTS-HD MA 7 1 x264-LEGi0N | Télécharger

Скачать через торрент музыку Dubmatix - Renegade Rockers - 2009, FLAC бесплатно без регистрации torrent

Статистика раздачи
Размер:  500 MB   |    Зарегистрирован:  7 лет 5 месяцев   |    .torrent скачан:  116 раз   |   
Раздают:  1   Качают:  1  
   
загрузка...
 
Автор Сообщение

Fent

avatar Fent


Dubmatix - Renegade Rockers


Жанр: Dub
Год выпуска : 2009
Лейбл: Echo Beach
Аудио кодек: FLAC
Тип рипа: tracks+.cue
Битрейт аудио: lossless
Продолжительность: 01:16:23
Рип: slowjam3 - What CD
01. Peace & Love (Feat. Linval Thompson) [color=gray](4:40)
02. Tornado (Feat. Ranking Joe) (4:53)
03. Dub In Me Hand (Feat. Raffa & Rasta Reuben Kwabena) (5:20)
04. Subdub (4:34)
05. Easy Down (Feat. Michael Rose) (4:47)
06. Rock And A Hard Place (Feat. Pincher) (3:07)
07. In The Ghetto (Feat. Sugar Minott) (4:58)
08. Blessing Of Compassion (Feat. Alton Ellis) (4:29)
09. Happy Dub (2:28)
10. Burning Fire Dub (3:54)
11. Re-Action (Feat. Willi Williams) (4:04)
12. Give Thanks & Praises (Feat. Ranking Joe) (4:20)
13. Idacity (Feat. Wayne Smith) (4:38)
14. Soul Dread Dub (3:42)
15. Steppa Shock Dub (4:12)
16. Push (Feat. Ammoye, Henrii & Kulcha Ites) (3:52)
17. Dread Reckoning Dub (4:06)
18. Depth Charge (4:18)
 
Exact Audio Copy V0.99 prebeta 4 from 23. January 2008

EAC extraction logfile from 31. March 2009, 14:55

Dubmatix / Renegade Rockers

Used drive : HL-DT-STDVDRAM GSA-T30L Adapter: 2 ID: 0

Read mode : SecureUtilize accurate stream : YesDefeat audio cache : YesMake use of C2 pointers : No

Read offset correction : 667Overread into Lead-In and Lead-Out : NoFill up missing offset samples with silence : YesDelete leading and trailing silent blocks : NoNull samples used in CRC calculations : YesUsed interface : Native Win32 interface for Win NT & 2000Gap handling : Appended to previous track

Used output format : User Defined EncoderSelected bitrate : 128 kBit/sQuality : HighAdd ID3 tag : NoCommand line compressor : C:\Program Files\FLAC\flac.exeAdditional command line options : -8 -V -T "ARTIST=%a" -T "TITLE=%t" -T "ALBUM=%g" -T "DATE=%y" -T "TRACKNUMBER=%n" -T "TOTALTRACKS=%x" -T "GENRE=%m" -T "ALBUM ARTIST=%v" -T "ALBUMARTIST=%v" -T "COMMENT=EAC V0.99 prebeta 4, Secure Mode, Test & Copy, Accurat

TOC of the extracted CD

Track | Start | Length | Start sector | End sector --------------------------------------------------------- 1 | 0:00.00 | 4:39.38 | 0 | 20962 2 | 4:39.38 | 4:53.03 | 20963 | 42940 3 | 9:32.41 | 5:19.51 | 42941 | 66916 4 | 14:52.17 | 4:34.24 | 66917 | 87490 5 | 19:26.41 | 4:47.14 | 87491 | 109029 6 | 24:13.55 | 3:07.17 | 109030 | 123071 7 | 27:20.72 | 4:58.33 | 123072 | 145454 8 | 32:19.30 | 4:28.74 | 145455 | 165628 9 | 36:48.29 | 2:27.72 | 165629 | 176725 10 | 39:16.26 | 3:54.26 | 176726 | 194301 11 | 43:10.52 | 4:03.48 | 194302 | 212574 12 | 47:14.25 | 4:20.28 | 212575 | 232102 13 | 51:34.53 | 4:37.53 | 232103 | 252930 14 | 56:12.31 | 3:41.67 | 252931 | 269572 15 | 59:54.23 | 4:12.19 | 269573 | 288491 16 | 64:06.42 | 3:52.20 | 288492 | 305911 17 | 67:58.62 | 4:06.19 | 305912 | 324380 18 | 72:05.06 | 4:18.08 | 324381 | 343738

Track 1

Filename C:\Addis is ruining my HDD\01 - Peace & Love (Feat. Linval Thompson).wav

Pre-gap length 0:00:02.00

Peak level 96.6 % Track quality 100.0 % Test CRC 0E9A2985 Copy CRC 0E9A2985 Track not present in AccurateRip database Copy OK

Track 2

Filename C:\Addis is ruining my HDD\02 - Tornado (Feat. Ranking Joe).wav

Pre-gap length 0:00:03.00

Peak level 96.6 % Track quality 100.0 % Test CRC 130E6414 Copy CRC 130E6414 Track not present in AccurateRip database Copy OK

Track 3

Filename C:\Addis is ruining my HDD\03 - Dub In Me Hand (Feat. Raffa & Rasta Reuben Kwabena).wav

Pre-gap length 0:00:02.00

Peak level 81.3 % Track quality 100.0 % Test CRC 182695C9 Copy CRC 182695C9 Track not present in AccurateRip database Copy OK

Track 4

Filename C:\Addis is ruining my HDD\04 - Subdub.wav

Pre-gap length 0:00:02.00

Peak level 86.1 % Track quality 100.0 % Test CRC 90B85F31 Copy CRC 90B85F31 Track not present in AccurateRip database Copy OK

Track 5

Filename C:\Addis is ruining my HDD\05 - Easy Down (Feat. Michael Rose).wav

Pre-gap length 0:00:02.00

Peak level 86.1 % Track quality 100.0 % Test CRC EEBEA626 Copy CRC EEBEA626 Track not present in AccurateRip database Copy OK

Track 6

Filename C:\Addis is ruining my HDD\06 - Rock And A Hard Place (Feat. Pincher).wav

Pre-gap length 0:00:02.00

Peak level 96.6 % Track quality 100.0 % Test CRC BB09BB3E Copy CRC BB09BB3E Track not present in AccurateRip database Copy OK

Track 7

Filename C:\Addis is ruining my HDD\07 - In The Ghetto (Feat. Sugar Minott).wav

Pre-gap length 0:00:02.00

Peak level 86.1 % Track quality 100.0 % Test CRC 14810C8A Copy CRC 14810C8A Track not present in AccurateRip database Copy OK

Track 8

Filename C:\Addis is ruining my HDD\08 - Blessing Of Compassion (Feat. Alton Ellis).wav

Pre-gap length 0:00:03.00

Peak level 91.2 % Track quality 99.9 % Test CRC CD517BC5 Copy CRC CD517BC5 Track not present in AccurateRip database Copy OK

Track 9

Filename C:\Addis is ruining my HDD\09 - Happy Dub.wav

Pre-gap length 0:00:03.00

Peak level 81.2 % Track quality 100.0 % Test CRC 1CEC71B2 Copy CRC 1CEC71B2 Track not present in AccurateRip database Copy OK

Track 10

Filename C:\Addis is ruining my HDD\10 - Burning Fire Dub.wav

Pre-gap length 0:00:02.00

Peak level 96.6 % Track quality 100.0 % Test CRC E6F988B3 Copy CRC E6F988B3 Track not present in AccurateRip database Copy OK

Track 11

Filename C:\Addis is ruining my HDD\11 - Re-Action (Feat. Willi Williams).wav

Pre-gap length 0:00:02.00

Peak level 86.1 % Track quality 100.0 % Test CRC 27AE01A2 Copy CRC 27AE01A2 Track not present in AccurateRip database Copy OK

Track 12

Filename C:\Addis is ruining my HDD\12 - Give Thanks & Praises (Feat. Ranking Joe).wav

Pre-gap length 0:00:02.00

Peak level 96.6 % Track quality 100.0 % Test CRC B0802431 Copy CRC B0802431 Track not present in AccurateRip database Copy OK

Track 13

Filename C:\Addis is ruining my HDD\13 - Idacity (Feat. Wayne Smith).wav

Pre-gap length 0:00:02.00

Peak level 86.1 % Track quality 100.0 % Test CRC 667E0F18 Copy CRC 667E0F18 Track not present in AccurateRip database Copy OK

Track 14

Filename C:\Addis is ruining my HDD\14 - Soul Dread Dub.wav

Pre-gap length 0:00:02.00

Peak level 96.6 % Track quality 100.0 % Test CRC 251FA3D0 Copy CRC 251FA3D0 Track not present in AccurateRip database Copy OK

Track 15

Filename C:\Addis is ruining my HDD\15 - Steppa Shock Dub.wav

Pre-gap length 0:00:02.00

Peak level 92.2 % Track quality 100.0 % Test CRC 46BA82E3 Copy CRC 46BA82E3 Track not present in AccurateRip database Copy OK

Track 16

Filename C:\Addis is ruining my HDD\16 - Push (Feat. Ammoye, Henrii & Kulcha Ites).wav

Pre-gap length 0:00:02.00

Peak level 81.3 % Track quality 100.0 % Test CRC 7E7FB618 Copy CRC 7E7FB618 Track not present in AccurateRip database Copy OK

Track 17

Filename C:\Addis is ruining my HDD\17 - Dread Reckoning Dub.wav

Pre-gap length 0:00:02.00

Peak level 91.2 % Track quality 100.0 % Test CRC EF8F6D6B Copy CRC EF8F6D6B Track not present in AccurateRip database Copy OK

Track 18

Filename C:\Addis is ruining my HDD\18 - Depth Charge.wav

Pre-gap length 0:00:02.00

Peak level 81.3 % Track quality 100.0 % Test CRC 8F3275FA Copy CRC 8F3275FA Track not present in AccurateRip database Copy OK

None of the tracks are present in the AccurateRip database

No errors occurred

End of status report
 
REM GENRE ReggaeREM DATE 2009REM DISCID 1711E712REM COMMENT "ExactAudioCopy v0.99pb4"PERFORMER "Dubmatix"TITLE "Renegade Rockers"FILE "01 - Peace & Love (Feat. Linval Thompson).wav" WAVE TRACK 01 AUDIO TITLE "Peace & Love (Feat. Linval Thompson)" PERFORMER "Dubmatix" INDEX 01 00:00:00 TRACK 02 AUDIO TITLE "Tornado (Feat. Ranking Joe)" PERFORMER "Dubmatix" INDEX 00 04:36:38FILE "02 - Tornado (Feat. Ranking Joe).wav" WAVE INDEX 01 00:00:00 TRACK 03 AUDIO TITLE "Dub In Me Hand (Feat. Raffa & Rasta Reuben Kwabena)" PERFORMER "Dubmatix" INDEX 00 04:51:03FILE "03 - Dub In Me Hand (Feat. Raffa & Rasta Reuben Kwabena).wav" WAVE INDEX 01 00:00:00 TRACK 04 AUDIO TITLE "Subdub" PERFORMER "Dubmatix" INDEX 00 05:17:51FILE "04 - Subdub.wav" WAVE INDEX 01 00:00:00 TRACK 05 AUDIO TITLE "Easy Down (Feat. Michael Rose)" PERFORMER "Dubmatix" INDEX 00 04:32:24FILE "05 - Easy Down (Feat. Michael Rose).wav" WAVE INDEX 01 00:00:00 TRACK 06 AUDIO TITLE "Rock And A Hard Place (Feat. Pincher) " PERFORMER "Dubmatix" INDEX 00 04:45:14FILE "06 - Rock And A Hard Place (Feat. Pincher).wav" WAVE INDEX 01 00:00:00 TRACK 07 AUDIO TITLE "In The Ghetto (Feat. Sugar Minott)" PERFORMER "Dubmatix" INDEX 00 03:05:17FILE "07 - In The Ghetto (Feat. Sugar Minott).wav" WAVE INDEX 01 00:00:00 TRACK 08 AUDIO TITLE "Blessing Of Compassion (Feat. Alton Ellis)" PERFORMER "Dubmatix" INDEX 00 04:55:33FILE "08 - Blessing Of Compassion (Feat. Alton Ellis).wav" WAVE INDEX 01 00:00:00 TRACK 09 AUDIO TITLE "Happy Dub" PERFORMER "Dubmatix" INDEX 00 04:25:74FILE "09 - Happy Dub.wav" WAVE INDEX 01 00:00:00 TRACK 10 AUDIO TITLE "Burning Fire Dub" PERFORMER "Dubmatix" INDEX 00 02:25:72FILE "10 - Burning Fire Dub.wav" WAVE INDEX 01 00:00:00 TRACK 11 AUDIO TITLE "Re-Action (Feat. Willi Williams)" PERFORMER "Dubmatix" INDEX 00 03:52:26FILE "11 - Re-Action (Feat. Willi Williams).wav" WAVE INDEX 01 00:00:00 TRACK 12 AUDIO TITLE "Give Thanks & Praises (Feat. Ranking Joe) " PERFORMER "Dubmatix" INDEX 00 04:01:48FILE "12 - Give Thanks & Praises (Feat. Ranking Joe).wav" WAVE INDEX 01 00:00:00 TRACK 13 AUDIO TITLE "Idacity (Feat. Wayne Smith)" PERFORMER "Dubmatix" INDEX 00 04:18:28FILE "13 - Idacity (Feat. Wayne Smith).wav" WAVE INDEX 01 00:00:00 TRACK 14 AUDIO TITLE "Soul Dread Dub" PERFORMER "Dubmatix" INDEX 00 04:35:53FILE "14 - Soul Dread Dub.wav" WAVE INDEX 01 00:00:00 TRACK 15 AUDIO TITLE "Steppa Shock Dub" PERFORMER "Dubmatix" INDEX 00 03:39:67FILE "15 - Steppa Shock Dub.wav" WAVE INDEX 01 00:00:00 TRACK 16 AUDIO TITLE "Push (Feat. Ammoye, Henrii & Kulcha Ites)" PERFORMER "Dubmatix" INDEX 00 04:10:19FILE "16 - Push (Feat. Ammoye, Henrii & Kulcha Ites).wav" WAVE INDEX 01 00:00:00 TRACK 17 AUDIO TITLE "Dread Reckoning Dub" PERFORMER "Dubmatix" INDEX 00 03:50:20FILE "17 - Dread Reckoning Dub.wav" WAVE INDEX 01 00:00:00 TRACK 18 AUDIO TITLE "Depth Charge" PERFORMER "Dubmatix" INDEX 00 04:04:19FILE "18 - Depth Charge.wav" WAVE INDEX 01 00:00:00
 
Started at: среда, 02. 06. 2010. - 21:22.20

18 files found

01 -===- C:\Downloads\Music\Рэгги\Dubmatix - Renegade Rockers - 2008\01 - Peace & Love (Feat. Linval Thompson).flac Extracted successfully Conclusion: This track looks like CDDA with probability 100% Tempfile successfully deleted.

02 -===- C:\Downloads\Music\Рэгги\Dubmatix - Renegade Rockers - 2008\02 - Tornado (Feat. Ranking Joe).flac Extracted successfully Conclusion: This track looks like CDDA with probability 100% Tempfile successfully deleted.

03 -===- C:\Downloads\Music\Рэгги\Dubmatix - Renegade Rockers - 2008\03 - Dub In Me Hand (Feat. Raffa & Rasta Reuben Kwabena).flac Extracted successfully Conclusion: This track looks like CDDA with probability 100% Tempfile successfully deleted.

04 -===- C:\Downloads\Music\Рэгги\Dubmatix - Renegade Rockers - 2008\04 - Subdub.flac Extracted successfully Conclusion: This track looks like CDDA with probability 100% Tempfile successfully deleted.

05 -===- C:\Downloads\Music\Рэгги\Dubmatix - Renegade Rockers - 2008\05 - Easy Down (Feat. Michael Rose).flac Extracted successfully Conclusion: This track looks like CDDA with probability 100% Tempfile successfully deleted.

06 -===- C:\Downloads\Music\Рэгги\Dubmatix - Renegade Rockers - 2008\06 - Rock And A Hard Place (Feat. Pincher).flac Extracted successfully Conclusion: This track looks like CDDA with probability 100% Tempfile successfully deleted.

07 -===- C:\Downloads\Music\Рэгги\Dubmatix - Renegade Rockers - 2008\07 - In The Ghetto (Feat. Sugar Minott).flac Extracted successfully Conclusion: This track looks like CDDA with probability 100% Tempfile successfully deleted.

08 -===- C:\Downloads\Music\Рэгги\Dubmatix - Renegade Rockers - 2008\08 - Blessing Of Compassion (Feat. Alton Ellis).flac Extracted successfully Conclusion: This track looks like CDDA with probability 100% Tempfile successfully deleted.

09 -===- C:\Downloads\Music\Рэгги\Dubmatix - Renegade Rockers - 2008\09 - Happy Dub.flac Extracted successfully Conclusion: This track looks like CDDA with probability 100% Tempfile successfully deleted.

10 -===- C:\Downloads\Music\Рэгги\Dubmatix - Renegade Rockers - 2008\10 - Burning Fire Dub.flac Extracted successfully Conclusion: This track looks like CDDA with probability 100% Tempfile successfully deleted.

11 -===- C:\Downloads\Music\Рэгги\Dubmatix - Renegade Rockers - 2008\11 - Re-Action (Feat. Willi Williams).flac Extracted successfully Conclusion: This track looks like CDDA with probability 99% Tempfile successfully deleted.

12 -===- C:\Downloads\Music\Рэгги\Dubmatix - Renegade Rockers - 2008\12 - Give Thanks & Praises (Feat. Ranking Joe).flac Extracted successfully Conclusion: This track looks like CDDA with probability 100% Tempfile successfully deleted.

13 -===- C:\Downloads\Music\Рэгги\Dubmatix - Renegade Rockers - 2008\13 - Idacity (Feat. Wayne Smith).flac Extracted successfully Conclusion: This track looks like CDDA with probability 99% Tempfile successfully deleted.

14 -===- C:\Downloads\Music\Рэгги\Dubmatix - Renegade Rockers - 2008\14 - Soul Dread Dub.flac Extracted successfully Conclusion: This track looks like CDDA with probability 100% Tempfile successfully deleted.

15 -===- C:\Downloads\Music\Рэгги\Dubmatix - Renegade Rockers - 2008\15 - Steppa Shock Dub.flac Extracted successfully Conclusion: This track looks like CDDA with probability 100% Tempfile successfully deleted.

16 -===- C:\Downloads\Music\Рэгги\Dubmatix - Renegade Rockers - 2008\16 - Push (Feat. Ammoye, Henrii & Kulcha Ites).flac Extracted successfully Conclusion: This track looks like CDDA with probability 99% Tempfile successfully deleted.

17 -===- C:\Downloads\Music\Рэгги\Dubmatix - Renegade Rockers - 2008\17 - Dread Reckoning Dub.flac Extracted successfully Conclusion: This track looks like CDDA with probability 100% Tempfile successfully deleted.

18 -===- C:\Downloads\Music\Рэгги\Dubmatix - Renegade Rockers - 2008\18 - Depth Charge.flac Extracted successfully Conclusion: This track looks like CDDA with probability 100% Tempfile successfully deleted.

Finished at: среда, 02. 06. 2010. - 21:36.27 (operation time: 0:14.06)


Трекер:  [ 15-Фев-2011 13:08 ]

  

Скачать .torrent

Размер .torrent файла 21 KB


Размер: 500 MB
Хэш (hash) релиза: 52abb3b23784e1d6597edba07a7be507b3a722c2

Еще никто не оставлял запись к записи скачать торрент Dubmatix - Renegade Rockers - 2009, FLAC . Будь первым!

!Обратная связь