Read More ... | Skeletonwitch - Devouring Radiant Light (2018) | Александра Даддарио

Скачать через торрент музыку Inner Circle - Bad To The Bone - 1992, FLAC бесплатно без регистрации torrent

Статистика раздачи
Размер:  538 MB   |    Зарегистрирован:  7 лет 6 месяцев   |    .torrent скачан:  146 раз   |   
Раздают:  1  
   
загрузка...
 
Автор Сообщение

Fent

avatar Fent


Inner Circle - Bad To The Bone

Жанр: Reggae
Год выпуска диска: 1992
Производитель диска: Germany (Metronome Records AB) (Warner Music Manufacturing Europe) (GEMA/BIEM)
Аудио кодек: FLAC
Тип рипа: image+.cue
Битрейт аудио: lossless
Продолжительность: 01:14:30

Трэклист:
[03:46] 01. Inner circle - Sweat {a la la la la long}
[03:43] 02. Inner circle - Shock out Jamaican style
[04:49] 03. Inner circle - Bad to the bone
[04:23] 04. Inner circle - Rock with you
[03:29] 05. Inner circle - Long time {Selassie a warn yu}
[04:22] 06. Inner circle - Hey love
[04:02] 07. Inner circle - Slow it down
[03:54] 08. Inner circle - Living it up
[04:11] 09. Inner circle - Stuck in the middle
[04:06] 10. Inner circle - Looking for a better way
[03:38] 11. Inner circle - Wrapped up in your love
[03:49] 12. Inner circle - Bad boys
[04:37] 13. Inner circle - Party party
[03:41] 14. Inner circle - Sunglasses at nite
[04:26] 15. Inner circle - Tear down these walls
[04:16] 16. Inner circle - Down by the river
[04:52] 17. Inner circle - Hold on to the ridim
[04:18] 18. Inner circle - Why them gwan so

Доп. информация: Диск выпущен в Германии. Куплен мною там же. Логи и сканы в комплекте раздачи. Приятного прослушивания!
 
Exact Audio Copy V0.99 prebeta 5 from 4. May 2009

EAC extraction logfile from 11. March 2010, 7:39

Inner circle / Bad to the bone

Used drive : BENQ DVD-ROM 16X Adapter: 1 ID: 0

Read mode : SecureUtilize accurate stream : YesDefeat audio cache : YesMake use of C2 pointers : No

Read offset correction : 738Overread into Lead-In and Lead-Out : NoFill up missing offset samples with silence : YesDelete leading and trailing silent blocks : NoNull samples used in CRC calculations : YesUsed interface : Native Win32 interface for Win NT & 2000

Used output format : User Defined EncoderSelected bitrate : 768 kBit/sQuality : HighAdd ID3 tag : NoCommand line compressor : C:\Program Files (x86)\Exact Audio Copy\FLAC\FLAC.EXEAdditional command line options : -8 -V -T "ARTIST=%a" -T "TITLE=%t" -T "ALBUM=%g" -T "DATE=%y" -T "TRACKNUMBER=%n" -T "GENRE=%m" -T "COMMENT=EAC FLAC -8" %s

TOC of the extracted CD

Track | Start | Length | Start sector | End sector --------------------------------------------------------- 1 | 0:00.00 | 3:46.27 | 0 | 16976 2 | 3:46.27 | 3:43.23 | 16977 | 33724 3 | 7:29.50 | 4:49.60 | 33725 | 55459 4 | 12:19.35 | 4:23.07 | 55460 | 75191 5 | 16:42.42 | 3:29.60 | 75192 | 90926 6 | 20:12.27 | 4:22.05 | 90927 | 110581 7 | 24:34.32 | 4:02.18 | 110582 | 128749 8 | 28:36.50 | 3:54.27 | 128750 | 146326 9 | 32:31.02 | 4:11.68 | 146327 | 165219 10 | 36:42.70 | 4:06.07 | 165220 | 183676 11 | 40:49.02 | 3:38.48 | 183677 | 200074 12 | 44:27.50 | 3:49.47 | 200075 | 217296 13 | 48:17.22 | 4:37.55 | 217297 | 238126 14 | 52:55.02 | 3:41.70 | 238127 | 254771 15 | 56:36.72 | 4:26.00 | 254772 | 274721 16 | 61:02.72 | 4:16.30 | 274722 | 293951 17 | 65:19.27 | 4:52.50 | 293952 | 315901 18 | 70:12.02 | 4:18.58 | 315902 | 335309

Range status and errors

Selected range

Filename E:\Music\!_Torrents\Inner Circle - Bad To The Bone\Inner circle - Bad to the bone.wav

Peak level 100.0 % Range quality 100.0 % Test CRC 949B1203 Copy CRC 949B1203 Copy OK

No errors occurred

AccurateRip summary

Track 1 accurately ripped (confidence 60) [F8CA11D9]Track 2 accurately ripped (confidence 57) [653361A3]Track 3 accurately ripped (confidence 59) [9AD513F4]Track 4 accurately ripped (confidence 60) [BA690C86]Track 5 accurately ripped (confidence 58) [BE93BCBC]Track 6 accurately ripped (confidence 59) [439EA2A8]Track 7 accurately ripped (confidence 59) [8B1F2B95]Track 8 accurately ripped (confidence 60) [CB059B4E]Track 9 accurately ripped (confidence 60) [A8A8B346]Track 10 accurately ripped (confidence 59) [3083BC30]Track 11 accurately ripped (confidence 59) [FA92B89E]Track 12 accurately ripped (confidence 59) [A844D81A]Track 13 accurately ripped (confidence 58) [C0C7FDC6]Track 14 accurately ripped (confidence 57) [E81AFE37]Track 15 accurately ripped (confidence 58) [5653BAD2]Track 16 accurately ripped (confidence 58) [787CDE9A]Track 17 accurately ripped (confidence 58) [18ED9290]Track 18 accurately ripped (confidence 56) [08EF2FC7]

All tracks accurately ripped

End of status report
 
auCDtect: CD records authenticity detector, version 0.8.2Copyright (c) 2004 Oleg Berngardt. All rights reserved.Copyright (c) 2004 Alexander Djourik. All rights reserved.------------------------------------------------------------Processing file: [Inner circle - Bad to the bone.wav]Detected average hi-boundary frequency: 2.069306e+004 HzDetected average lo-boundary frequency: 1.609204e+004 HzDetected average hi-cut frequency: 2.160256e+004 HzDetected average lo-cut frequency: 1.685037e+004 HzMaximum probablis boundary frequency: 2.189100e+004 HzCoefficient of nonlinearity of a phase: 1.613891e-002First order smothness: 5.818216e-001Second order smothness: 5.608753e-001

------------------------------------------------------------This track looks like CDDA with probability 99%


Трекер:  [ 15-Фев-2011 13:07 ]

  

Скачать .torrent

Размер .torrent файла 11 KB


Размер: 538 MB
Хэш (hash) релиза: 3f869bcae89bc6a346e6cf1d7291aed2d69ad4fe

Еще никто не оставлял запись к записи скачать торрент Inner Circle - Bad To The Bone - 1992, FLAC . Будь первым!

!Обратная связь