Dancefloor Summer Hits 2018 | In Flight USA – August 2018 | Martial Arts

Скачать через торрент музыку the Abyssinians - Satta Massagana - 1976, FLAC бесплатно без регистрации torrent

Статистика раздачи
Размер:  369 MB   |    Зарегистрирован:  7 лет 6 месяцев   |    .torrent скачан:  102 раза   |   
Раздают:  1  
   
загрузка...
 
Автор Сообщение

Fent

avatar Fent


the Abyssinians - Satta Massagana

Жанр: Reggae
Год выпуска диска: 1976
Производитель диска: Jamaica
Аудио кодек: FLAC
Тип рипа: tracks+.cue
Битрейт аудио: lossless
Продолжительность: 63:10
Трэклист:
01 - Declaration Of Rights
02 - The Good Lord
03 - Forward Unto Zion
04 - Know Jah Today
05 - Abendigo
06 - Y Mas Gan
07 - Black Man's Strain
08 - Satta Massagana
09 - I And I
10 - African Race
11 - Leggo Beast *
12 - Peculiar Number *
13 - Reason Time *
14 - There Is No End *
15 - Jerusalem *
16 - Leggo Beast Dub *
17 - Abendigo (Extended Mix) *
18 - Poor Jason Whyte (Extended Mix) *
Exact Audio Copy V0.99 prebeta 4 from 23. January 2008

EAC extraction logfile from 3. May 2008, 14:58

The Abyssinians / Satta Massagana

Used drive : PHILIPS DVDR1628P1 Adapter: 4 ID: 0

Read mode : Secure
Utilize accurate stream : Yes
Defeat audio cache : Yes
Make use of C2 pointers : No

Read offset correction : 618
Overread into Lead-In and Lead-Out : No
Fill up missing offset samples with silence : Yes
Delete leading and trailing silent blocks : No
Null samples used in CRC calculations : Yes
Used interface : Native Win32 interface for Win NT & 2000
Gap handling : Appended to previous track

Used output format : User Defined Encoder
Selected bitrate : 128 kBit/s
Quality : High
Add ID3 tag : No
Command line compressor : C:\Program Files\Exact Audio Copy\Flac\flac.exe
Additional command line options : -V -8 -T "artist=%a" -T "title=%t" -T "album=%g" -T "date=%y" -T "tracknumber=%n" -T

"genre=%m" %s

TOC of the extracted CD

Track | Start | Length | Start sector | End sector
---------------------------------------------------------
1 | 0:00.00 | 3:30.00 | 0 | 15749
2 | 3:30.00 | 3:27.00 | 15750 | 31274
3 | 6:57.00 | 3:48.00 | 31275 | 48374
4 | 10:45.00 | 2:58.00 | 48375 | 61724
5 | 13:43.00 | 3:37.37 | 61725 | 78036
6 | 17:20.37 | 3:44.38 | 78037 | 94874
7 | 21:05.00 | 2:47.38 | 94875 | 107437
8 | 23:52.38 | 3:32.00 | 107438 | 123337
9 | 27:24.38 | 3:36.00 | 123338 | 139537
10 | 31:00.38 | 2:56.74 | 139538 | 152811
11 | 33:57.37 | 3:12.00 | 152812 | 167211
12 | 37:09.37 | 4:02.00 | 167212 | 185361
13 | 41:11.37 | 2:57.00 | 185362 | 198636
14 | 44:08.37 | 3:24.38 | 198637 | 213974
15 | 47:33.00 | 2:19.00 | 213975 | 224399
16 | 49:52.00 | 3:01.00 | 224400 | 237974
17 | 52:53.00 | 5:58.00 | 237975 | 264824
18 | 58:51.00 | 4:18.19 | 264825 | 284193

Track 1

Filename C:\eac rips by Addis\ The Abyssinians - 2006 - Satta Massagana\01 - Declartion of Rights .wav

Pre-gap length 0:00:02.00

Peak level 97.9 %
Track quality 100.0 %
Test CRC 61F1D241
Copy CRC 61F1D241
Track not present in AccurateRip database
Copy OK

Track 2

Filename C:\eac rips by Addis\ The Abyssinians - 2006 - Satta Massagana\02 - The Good Lord .wav

Pre-gap length 0:00:01.60

Peak level 97.9 %
Track quality 100.0 %
Test CRC 92623487
Copy CRC 92623487
Track not present in AccurateRip database
Copy OK

Track 3

Filename C:\eac rips by Addis\ The Abyssinians - 2006 - Satta Massagana\03 - Forward unto Zion .wav

Pre-gap length 0:00:01.53

Peak level 97.9 %
Track quality 100.0 %
Test CRC 1E4BA32C
Copy CRC 1E4BA32C
Track not present in AccurateRip database
Copy OK

Track 4

Filename C:\eac rips by Addis\ The Abyssinians - 2006 - Satta Massagana\04 - Know Jah Today .wav

Pre-gap length 0:00:01.77

Peak level 97.9 %
Track quality 99.9 %
Test CRC 3FBAFA79
Copy CRC 3FBAFA79
Track not present in AccurateRip database
Copy OK

Track 5

Filename C:\eac rips by Addis\ The Abyssinians - 2006 - Satta Massagana\05 - Abendigo .wav

Pre-gap length 0:00:01.90

Peak level 97.9 %
Track quality 99.9 %
Test CRC 978CD0E7
Copy CRC 978CD0E7
Track not present in AccurateRip database
Copy OK

Track 6

Filename C:\eac rips by Addis\ The Abyssinians - 2006 - Satta Massagana\06 - Y Mas Gan .wav

Pre-gap length 0:00:01.45

Peak level 97.9 %
Track quality 100.0 %
Test CRC 111F7DB6
Copy CRC 111F7DB6
Track not present in AccurateRip database
Copy OK

Track 7

Filename C:\eac rips by Addis\ The Abyssinians - 2006 - Satta Massagana\07 - Black Man's Strain .wav

Pre-gap length 0:00:01.93

Peak level 97.9 %
Track quality 100.0 %
Test CRC 6B61CD44
Copy CRC 6B61CD44
Track not present in AccurateRip database
Copy OK

Track 8

Filename C:\eac rips by Addis\ The Abyssinians - 2006 - Satta Massagana\08 - Satta Massagana .wav

Pre-gap length 0:00:01.64

Peak level 97.9 %
Track quality 100.0 %
Test CRC 27E03050
Copy CRC 27E03050
Track not present in AccurateRip database
Copy OK

Track 9

Filename C:\eac rips by Addis\ The Abyssinians - 2006 - Satta Massagana\09 - I and I .wav

Pre-gap length 0:00:02.13

Peak level 97.9 %
Track quality 100.0 %
Test CRC DB5A0A0B
Copy CRC DB5A0A0B
Track not present in AccurateRip database
Copy OK

Track 10

Filename C:\eac rips by Addis\ The Abyssinians - 2006 - Satta Massagana\10 - African Race .wav

Pre-gap length 0:00:01.53

Peak level 97.9 %
Track quality 99.9 %
Test CRC F9105929
Copy CRC F9105929
Track not present in AccurateRip database
Copy OK

Track 11

Filename C:\eac rips by Addis\ The Abyssinians - 2006 - Satta Massagana\11 - Leggo Beast .wav

Pre-gap length 0:00:01.49

Peak level 97.9 %
Track quality 100.0 %
Test CRC A42376EE
Copy CRC A42376EE
Track not present in AccurateRip database
Copy OK

Track 12

Filename C:\eac rips by Addis\ The Abyssinians - 2006 - Satta Massagana\12 - Paculiar Number .wav

Pre-gap length 0:00:01.56

Peak level 98.1 %
Track quality 100.0 %
Test CRC AD3DD2B7
Copy CRC AD3DD2B7
Track not present in AccurateRip database
Copy OK

Track 13

Filename C:\eac rips by Addis\ The Abyssinians - 2006 - Satta Massagana\13 - Reason Time .wav

Pre-gap length 0:00:01.80

Peak level 97.9 %
Track quality 99.9 %
Test CRC 0483867C
Copy CRC 0483867C
Track not present in AccurateRip database
Copy OK

Track 14

Filename C:\eac rips by Addis\ The Abyssinians - 2006 - Satta Massagana\14 - There is no End .wav

Pre-gap length 0:00:01.62

Peak level 98.0 %
Track quality 100.0 %
Test CRC A5F86F8C
Copy CRC A5F86F8C
Track not present in AccurateRip database
Copy OK

Track 15

Filename C:\eac rips by Addis\ The Abyssinians - 2006 - Satta Massagana\15 - Jerusalem .wav

Pre-gap length 0:00:01.98

Peak level 97.9 %
Track quality 100.0 %
Test CRC 788718CA
Copy CRC 788718CA
Track not present in AccurateRip database
Copy OK

Track 16

Filename C:\eac rips by Addis\ The Abyssinians - 2006 - Satta Massagana\16 - Leggo Beast Dub(Previusly unreleased

on CD) .wav

Pre-gap length 0:00:01.37

Peak level 97.9 %
Track quality 99.9 %
Test CRC 487DDBC0
Copy CRC 487DDBC0
Track not present in AccurateRip database
Copy OK

Track 17

Filename C:\eac rips by Addis\ The Abyssinians - 2006 - Satta Massagana\17 - Abendigo (extended mix, Previusly

unreleased) .wav

Pre-gap length 0:00:01.48

Peak level 97.9 %
Track quality 100.0 %
Test CRC B327F0B1
Copy CRC B327F0B1
Track not present in AccurateRip database
Copy OK

Track 18

Filename C:\eac rips by Addis\ The Abyssinians - 2006 - Satta Massagana\18 - Poor Jason Whyte (extended mix,

Previusly unreleased) .wav

Pre-gap length 0:00:01.48

Peak level 98.0 %
Track quality 100.0 %
Test CRC 432F49FF
Copy CRC 432F49FF
Track not present in AccurateRip database
Copy OK

None of the tracks are present in the AccurateRip database

No errors occurred

End of status report
Доп. информация: Альбом the Abyssinians - Satta Massagana - один из величайших roots-reggae альбомов, непревзойденная классика, которую обязан иметь в своей коллекции не только ценитель регги, но и всякий уважающий себя меломан. Перед вами последнее переиздание этого шедевра (2007г), включающее 8 бонус-треков (11-18) из которых последние 4 не издавались ранее. лэйбл Heartbeat.

Трекер:  [ 15-Фев-2011 13:06 ]

  

Скачать .torrent

Размер .torrent файла 16 KB


Размер: 369 MB
Хэш (hash) релиза: 730960bb18f3aea1650918ae21c3e807a976bdf5

Еще никто не оставлял запись к записи скачать торрент the Abyssinians - Satta Massagana - 1976, FLAC . Будь первым!

!Обратная связь