O Escaravelho do Diabo | Мятежный дух / Rebelde Way | DK-CSC_013 - La miniera di diamanti - Il mistero della camera chiusa [1890x25...

Скачать через торрент музыку Bob Marley & The Wailers - Live Forever: The Stanley Theatre, Pittsburgh, PA, September 23, 1980 бесплатно без регистрации torrent

Статистика раздачи
Размер:  861 MB   |    Зарегистрирован:  7 лет 5 месяцев   |    .torrent скачан:  117 раз   |   
Раздают:  1  
   
загрузка...
 
Автор Сообщение

Fent

avatar Fent


Bob Marley & The Wailers – Live Forever: The Stanley Theatre, Pittsburgh, PA, September 23, 1980

Жанр: Reggae
Дата выхода: 01 Feb 2011
Лейбл: Tuff Gong
Номер по каталогу: UMGD
Страна: US
Аудио кодек: FLAC
Тип рипа: tracks+.cue
Битрейт аудио: lossless
Продолжительность: 1:58:38
Источник: chuckyd4, Oatism, What.CD

Disc 1:
01. Greetings [0:32]
02. Natural Mystic [4:41]
03. Positive Vibration [4:47]
04. Burnin' Lootin' [3:36]
05. Them Belly Full [3:48]
06. The Heathen [4:25]
07. Running Away [2:51]
08. Crazy Baldhead [5:03]
09. War / No More Trouble [6:04]
10. Zimbabwe [3:39]
11. Zion Train [3:50]
12. No Woman No Cry [6:05]

Disc 2:
01. Jamming [4:31]
02. Exodus [7:02]
03. Redemption Song [4:08]
04. Coming In From The Cold [3:37]
05. Could You Be Loved [7:41]
06. Is This Love [3:38]
07. Work [4:15]
08. Get Up Stand Up [6:38]

Best Buy Bonus Disc:
01. I Know A Place [3:45]
02. Punky Reggae Party (Jamaican 12" Version) [9:19]
03. Smile Jamaica [5:04]
04. Who Colt The Game [3:15]
05. Keep On Moving [6:26]
Recorded 30 years ago while Marley was touring in support of his album Uprising, Live Forever is Bob Marley's last recorded concert. This never before released audio collection offers an incredible snapshot of one of music's most influential performers.

Bob Marley & The Wailers - Live Forever: The Stanley Theatre, Pittsburgh, PA, September 23, 1980 is a 2CD/3LP/digital collection that features many of Bob's most cherished songs, and is available for the first time on February 1, 2011.

This unforgettable concert contains unique performances of "No Woman No Cry," "Jammin'," and "Is This Love," to name a few, and depicts a musical innovator and inspiration to people of many cultures and generations. This spectacular audio documentary Live Forever, also immortalizes the last song Marley ever performed live in concert: "Get Up Stand Up," his rally cry for equality.

Vocals, Guitar - Bob Marley
Vocals [Background] - I Threes
Percussion - Alvin "Seeco" Patterson
Keyboards - Earl "Wya" Lindo, Tyrone Downie
Guitar [Lead] - Al Anderson, Junior Marvin
Drums - Aston "Family Man" Barrett
Mastered By - Kevin Reeves

Full live concert mastered from the original reel to reel tape from the concert's mixing board recording.
 
X Lossless Decoder version 20101212 (126.2)

XLD extraction logfile from 2011-02-01 16:36:16 -0500

Bob Marley & The Wailers / Live Forever - September 23, 1980 at the Stanley Theatre (Disc 1)

Used drive : HL-DT-ST DVDRW GWA4080MA (revision BE39)

Ripper mode : CDParanoia III 10.2Disable audio cache : OK for the drive with a cache less than 2750KiBMake use of C2 pointers : NORead offset correction : 667Max retry count : 100Gap status : Analyzed, Appended

TOC of the extracted CD Track | Start | Length | Start sector | End sector --------------------------------------------------------- 1 | 00:00:00 | 00:31:63 | 0 | 2387 2 | 00:31:63 | 04:40:56 | 2388 | 23443 3 | 05:12:44 | 04:47:36 | 23444 | 45004 4 | 10:00:05 | 03:35:43 | 45005 | 61172 5 | 13:35:48 | 03:47:45 | 61173 | 78242 6 | 17:23:18 | 04:25:06 | 78243 | 98123 7 | 21:48:24 | 02:50:71 | 98124 | 110944 8 | 24:39:20 | 05:02:42 | 110945 | 133636 9 | 29:41:62 | 06:03:67 | 133637 | 160928 10 | 35:45:54 | 03:39:04 | 160929 | 177357 11 | 39:24:58 | 03:50:06 | 177358 | 194613 12 | 43:14:64 | 06:05:26 | 194614 | 222014

AccurateRip Summary Disc not found in AccurateRip DB.

All Tracks Album gain : -7.47 dB Peak : 1.000000 Statistics Read error : 0 Skipped (treated as error) : 0 Edge jitter error (maybe fixed) : 0 Atom jitter error (maybe fixed) : 0 Drift error (maybe fixed) : 0 Dropped bytes error (maybe fixed) : 0 Duplicated bytes error (maybe fixed) : 0

Track 01 Filename : /Users/Chad/Desktop/What files/Bob Marley - Live Forever (2011 FLAC)/Disc 1/01 Bob Marley & The Wailers - Greetings.flac Pre-gap length : 00:02:00

Track gain : -3.93 dB Peak : 0.835449 CRC32 hash (test run) : D5946FBA CRC32 hash : D5946FBA CRC32 hash (skip zero) : 6BD43568 AccurateRip signature : 59D19B53 ->Track not present in AccurateRip database. Statistics Read error : 0 Skipped (treated as error) : 0 Edge jitter error (maybe fixed) : 0 Atom jitter error (maybe fixed) : 0 Drift error (maybe fixed) : 0 Dropped bytes error (maybe fixed) : 0 Duplicated bytes error (maybe fixed) : 0 Inconsistency in error sectors : 0

Track 02 Filename : /Users/Chad/Desktop/What files/Bob Marley - Live Forever (2011 FLAC)/Disc 1/02 Bob Marley & The Wailers - Natural Mystic.flac

Track gain : -6.15 dB Peak : 1.000000 CRC32 hash (test run) : 346C35D8 CRC32 hash : 346C35D8 CRC32 hash (skip zero) : 03817E9F AccurateRip signature : C3B54A4F ->Track not present in AccurateRip database. Statistics Read error : 0 Skipped (treated as error) : 0 Edge jitter error (maybe fixed) : 0 Atom jitter error (maybe fixed) : 0 Drift error (maybe fixed) : 0 Dropped bytes error (maybe fixed) : 0 Duplicated bytes error (maybe fixed) : 0 Inconsistency in error sectors : 0

Track 03 Filename : /Users/Chad/Desktop/What files/Bob Marley - Live Forever (2011 FLAC)/Disc 1/03 Bob Marley & The Wailers - Positive Vibration.flac

Track gain : -7.05 dB Peak : 1.000000 CRC32 hash (test run) : 91CB71BF CRC32 hash : 91CB71BF CRC32 hash (skip zero) : C867F6D2 AccurateRip signature : 0093FA87 ->Track not present in AccurateRip database. Statistics Read error : 0 Skipped (treated as error) : 0 Edge jitter error (maybe fixed) : 0 Atom jitter error (maybe fixed) : 0 Drift error (maybe fixed) : 0 Dropped bytes error (maybe fixed) : 0 Duplicated bytes error (maybe fixed) : 0 Inconsistency in error sectors : 0

Track 04 Filename : /Users/Chad/Desktop/What files/Bob Marley - Live Forever (2011 FLAC)/Disc 1/04 Bob Marley & The Wailers - Burnin' Lootin'.flac

Track gain : -7.07 dB Peak : 1.000000 CRC32 hash (test run) : 39CC3B42 CRC32 hash : 39CC3B42 CRC32 hash (skip zero) : DC69AB47 AccurateRip signature : 494AAE53 ->Track not present in AccurateRip database. Statistics Read error : 0 Skipped (treated as error) : 0 Edge jitter error (maybe fixed) : 0 Atom jitter error (maybe fixed) : 0 Drift error (maybe fixed) : 0 Dropped bytes error (maybe fixed) : 0 Duplicated bytes error (maybe fixed) : 0 Inconsistency in error sectors : 0

Track 05 Filename : /Users/Chad/Desktop/What files/Bob Marley - Live Forever (2011 FLAC)/Disc 1/05 Bob Marley & The Wailers - Them Belly Full.flac

Track gain : -7.71 dB Peak : 1.000000 CRC32 hash (test run) : 3A73FCB5 CRC32 hash : 3A73FCB5 CRC32 hash (skip zero) : 229C78F6 AccurateRip signature : 547B95ED ->Track not present in AccurateRip database. Statistics Read error : 0 Skipped (treated as error) : 0 Edge jitter error (maybe fixed) : 0 Atom jitter error (maybe fixed) : 0 Drift error (maybe fixed) : 0 Dropped bytes error (maybe fixed) : 0 Duplicated bytes error (maybe fixed) : 0 Inconsistency in error sectors : 0

Track 06 Filename : /Users/Chad/Desktop/What files/Bob Marley - Live Forever (2011 FLAC)/Disc 1/06 Bob Marley & The Wailers - The Heathen.flac

Track gain : -7.46 dB Peak : 1.000000 CRC32 hash (test run) : B808CBD6 CRC32 hash : B808CBD6 CRC32 hash (skip zero) : 34542ED8 AccurateRip signature : F407A3D8 ->Track not present in AccurateRip database. Statistics Read error : 0 Skipped (treated as error) : 0 Edge jitter error (maybe fixed) : 0 Atom jitter error (maybe fixed) : 0 Drift error (maybe fixed) : 0 Dropped bytes error (maybe fixed) : 0 Duplicated bytes error (maybe fixed) : 0 Inconsistency in error sectors : 0

Track 07 Filename : /Users/Chad/Desktop/What files/Bob Marley - Live Forever (2011 FLAC)/Disc 1/07 Bob Marley & The Wailers - Running Away.flac

Track gain : -7.97 dB Peak : 1.000000 CRC32 hash (test run) : 730E9CF0 CRC32 hash : 730E9CF0 CRC32 hash (skip zero) : 0BCDF2B1 AccurateRip signature : 1D096E3E ->Track not present in AccurateRip database. Statistics Read error : 0 Skipped (treated as error) : 0 Edge jitter error (maybe fixed) : 0 Atom jitter error (maybe fixed) : 0 Drift error (maybe fixed) : 0 Dropped bytes error (maybe fixed) : 0 Duplicated bytes error (maybe fixed) : 0 Inconsistency in error sectors : 0

Track 08 Filename : /Users/Chad/Desktop/What files/Bob Marley - Live Forever (2011 FLAC)/Disc 1/08 Bob Marley & The Wailers - Crazy Baldhead.flac

Track gain : -8.68 dB Peak : 1.000000 CRC32 hash (test run) : 21A56015 CRC32 hash : 21A56015 CRC32 hash (skip zero) : EFAE0418 AccurateRip signature : 17926445 ->Track not present in AccurateRip database. Statistics Read error : 0 Skipped (treated as error) : 0 Edge jitter error (maybe fixed) : 0 Atom jitter error (maybe fixed) : 0 Drift error (maybe fixed) : 0 Dropped bytes error (maybe fixed) : 0 Duplicated bytes error (maybe fixed) : 0 Inconsistency in error sectors : 0

Track 09 Filename : /Users/Chad/Desktop/What files/Bob Marley - Live Forever (2011 FLAC)/Disc 1/09 Bob Marley & The Wailers - War_No More Trouble.flac

Track gain : -7.83 dB Peak : 1.000000 CRC32 hash (test run) : 065023AA CRC32 hash : 065023AA CRC32 hash (skip zero) : 6FFEEB0C AccurateRip signature : 3A543569 ->Track not present in AccurateRip database. Statistics Read error : 0 Skipped (treated as error) : 0 Edge jitter error (maybe fixed) : 0 Atom jitter error (maybe fixed) : 0 Drift error (maybe fixed) : 0 Dropped bytes error (maybe fixed) : 0 Duplicated bytes error (maybe fixed) : 0 Inconsistency in error sectors : 0

Track 10 Filename : /Users/Chad/Desktop/What files/Bob Marley - Live Forever (2011 FLAC)/Disc 1/10 Bob Marley & The Wailers - Zimbabwe.flac

Track gain : -7.16 dB Peak : 1.000000 CRC32 hash (test run) : 9471CD2E CRC32 hash : 9471CD2E CRC32 hash (skip zero) : DA0529B3 AccurateRip signature : 914E5E01 ->Track not present in AccurateRip database. Statistics Read error : 0 Skipped (treated as error) : 0 Edge jitter error (maybe fixed) : 0 Atom jitter error (maybe fixed) : 0 Drift error (maybe fixed) : 0 Dropped bytes error (maybe fixed) : 0 Duplicated bytes error (maybe fixed) : 0 Inconsistency in error sectors : 0

Track 11 Filename : /Users/Chad/Desktop/What files/Bob Marley - Live Forever (2011 FLAC)/Disc 1/11 Bob Marley & The Wailers - Zion Train.flac

Track gain : -6.90 dB Peak : 1.000000 CRC32 hash (test run) : 23D67971 CRC32 hash : 23D67971 CRC32 hash (skip zero) : DEC37347 AccurateRip signature : 52E47E33 ->Track not present in AccurateRip database. Statistics Read error : 0 Skipped (treated as error) : 0 Edge jitter error (maybe fixed) : 0 Atom jitter error (maybe fixed) : 0 Drift error (maybe fixed) : 0 Dropped bytes error (maybe fixed) : 0 Duplicated bytes error (maybe fixed) : 0 Inconsistency in error sectors : 0

Track 12 Filename : /Users/Chad/Desktop/What files/Bob Marley - Live Forever (2011 FLAC)/Disc 1/12 Bob Marley & The Wailers - No Woman No Cry.flac

Track gain : -6.95 dB Peak : 1.000000 CRC32 hash (test run) : 13E5E281 CRC32 hash : 13E5E281 CRC32 hash (skip zero) : 592F1894 AccurateRip signature : 1CF9BECF ->Track not present in AccurateRip database. Statistics Read error : 0 Skipped (treated as error) : 0 Edge jitter error (maybe fixed) : 0 Atom jitter error (maybe fixed) : 0 Drift error (maybe fixed) : 0 Dropped bytes error (maybe fixed) : 0 Duplicated bytes error (maybe fixed) : 0 Inconsistency in error sectors : 0

No errors occurred

End of status report
 
TITLE "Live Forever: The Stanley Theatre, Pittsburgh, PA, September 23, 1980 (Disc 1)"PERFORMER "Bob Marley & The Wailers"CATALOG 0602527604190REM GENRE "Reggae"REM DATE "2011"REM DISCNUMBER 1REM TOTALDISCS 2REM DISCID 8D0B900CREM REPLAYGAIN_ALBUM_GAIN -7.47 dBREM REPLAYGAIN_ALBUM_PEAK 1.000000FILE "01 Bob Marley & The Wailers - Greetings.wav" WAVE TRACK 01 AUDIO TITLE "Greetings" PERFORMER "Bob Marley & The Wailers" ISRC USUM71029415 REM REPLAYGAIN_TRACK_GAIN -3.93 dB REM REPLAYGAIN_TRACK_PEAK 0.835449 INDEX 01 00:00:00FILE "02 Bob Marley & The Wailers - Natural Mystic.wav" WAVE TRACK 02 AUDIO TITLE "Natural Mystic" PERFORMER "Bob Marley & The Wailers" ISRC USUM71029356 REM REPLAYGAIN_TRACK_GAIN -6.15 dB REM REPLAYGAIN_TRACK_PEAK 1.000000 INDEX 01 00:00:00FILE "03 Bob Marley & The Wailers - Positive Vibration.wav" WAVE TRACK 03 AUDIO TITLE "Positive Vibration" PERFORMER "Bob Marley & The Wailers" ISRC USUM71029397 REM REPLAYGAIN_TRACK_GAIN -7.05 dB REM REPLAYGAIN_TRACK_PEAK 1.000000 INDEX 01 00:00:00FILE "04 Bob Marley & The Wailers - Burnin' Lootin'.wav" WAVE TRACK 04 AUDIO TITLE "Burnin' Lootin'" PERFORMER "Bob Marley & The Wailers" ISRC USUM71029398 REM REPLAYGAIN_TRACK_GAIN -7.07 dB REM REPLAYGAIN_TRACK_PEAK 1.000000 INDEX 01 00:00:00FILE "05 Bob Marley & The Wailers - Them Belly Full.wav" WAVE TRACK 05 AUDIO TITLE "Them Belly Full" PERFORMER "Bob Marley & The Wailers" ISRC USUM71029399 REM REPLAYGAIN_TRACK_GAIN -7.71 dB REM REPLAYGAIN_TRACK_PEAK 1.000000 INDEX 01 00:00:00FILE "06 Bob Marley & The Wailers - The Heathen.wav" WAVE TRACK 06 AUDIO TITLE "The Heathen" PERFORMER "Bob Marley & The Wailers" ISRC USUM71029400 REM REPLAYGAIN_TRACK_GAIN -7.46 dB REM REPLAYGAIN_TRACK_PEAK 1.000000 INDEX 01 00:00:00FILE "07 Bob Marley & The Wailers - Running Away.wav" WAVE TRACK 07 AUDIO TITLE "Running Away" PERFORMER "Bob Marley & The Wailers" ISRC USUM71029401 REM REPLAYGAIN_TRACK_GAIN -7.97 dB REM REPLAYGAIN_TRACK_PEAK 1.000000 INDEX 01 00:00:00FILE "08 Bob Marley & The Wailers - Crazy Baldhead.wav" WAVE TRACK 08 AUDIO TITLE "Crazy Baldhead" PERFORMER "Bob Marley & The Wailers" ISRC USUM71029434 REM REPLAYGAIN_TRACK_GAIN -8.68 dB REM REPLAYGAIN_TRACK_PEAK 1.000000 INDEX 01 00:00:00FILE "09 Bob Marley & The Wailers - War_No More Trouble.wav" WAVE TRACK 09 AUDIO TITLE "War / No More Trouble" PERFORMER "Bob Marley & The Wailers" ISRC USUM71029403 REM REPLAYGAIN_TRACK_GAIN -7.83 dB REM REPLAYGAIN_TRACK_PEAK 1.000000 INDEX 01 00:00:00FILE "10 Bob Marley & The Wailers - Zimbabwe.wav" WAVE TRACK 10 AUDIO TITLE "Zimbabwe" PERFORMER "Bob Marley & The Wailers" ISRC USUM71029404 REM REPLAYGAIN_TRACK_GAIN -7.16 dB REM REPLAYGAIN_TRACK_PEAK 1.000000 INDEX 01 00:00:00FILE "11 Bob Marley & The Wailers - Zion Train.wav" WAVE TRACK 11 AUDIO TITLE "Zion Train" PERFORMER "Bob Marley & The Wailers" ISRC USUM71029405 REM REPLAYGAIN_TRACK_GAIN -6.90 dB REM REPLAYGAIN_TRACK_PEAK 1.000000 INDEX 01 00:00:00FILE "12 Bob Marley & The Wailers - No Woman No Cry.wav" WAVE TRACK 12 AUDIO TITLE "No Woman No Cry" PERFORMER "Bob Marley & The Wailers" ISRC USUM71029406 REM REPLAYGAIN_TRACK_GAIN -6.95 dB REM REPLAYGAIN_TRACK_PEAK 1.000000 INDEX 01 00:00:00
 
X Lossless Decoder version 20101212 (126.2)

XLD extraction logfile from 2011-02-01 17:20:19 -0500

Bob Marley & The Wailers / Live Forever: The Stanley Theatre, Pittsburgh, PA, September 23, 1980

Used drive : HL-DT-ST DVDRW GWA4080MA (revision BE39)

Ripper mode : CDParanoia III 10.2Disable audio cache : OK for the drive with a cache less than 2750KiBMake use of C2 pointers : NORead offset correction : 667Max retry count : 100Gap status : Analyzed, Appended

TOC of the extracted CD Track | Start | Length | Start sector | End sector --------------------------------------------------------- 1 | 00:00:00 | 04:31:37 | 0 | 20361 2 | 04:31:37 | 07:01:51 | 20362 | 51987 3 | 11:33:13 | 04:08:00 | 51988 | 70587 4 | 15:41:13 | 03:37:15 | 70588 | 86877 5 | 19:18:28 | 07:40:50 | 86878 | 121427 6 | 26:59:03 | 03:37:41 | 121428 | 137743 7 | 30:36:44 | 04:15:28 | 137744 | 156896 8 | 34:51:72 | 06:38:21 | 156897 | 186767

AccurateRip Summary Disc not found in AccurateRip DB.

All Tracks Album gain : -8.74 dB Peak : 1.000000 Statistics Read error : 0 Skipped (treated as error) : 0 Edge jitter error (maybe fixed) : 0 Atom jitter error (maybe fixed) : 0 Drift error (maybe fixed) : 0 Dropped bytes error (maybe fixed) : 0 Duplicated bytes error (maybe fixed) : 0

Track 01 Filename : /Users/Chad/Desktop/What files/Bob Marley - Live Forever (2011 FLAC)/Disc 2/01 Bob Marley & The Wailers - Jamming [Live At The Stanley Theatre - 9/23/1980].flac Pre-gap length : 00:02:00

Track gain : -7.91 dB Peak : 1.000000 CRC32 hash (test run) : A3BC6E71 CRC32 hash : A3BC6E71 CRC32 hash (skip zero) : B41AF950 AccurateRip signature : 064291D9 ->Track not present in AccurateRip database. Statistics Read error : 0 Skipped (treated as error) : 0 Edge jitter error (maybe fixed) : 0 Atom jitter error (maybe fixed) : 0 Drift error (maybe fixed) : 0 Dropped bytes error (maybe fixed) : 0 Duplicated bytes error (maybe fixed) : 0 Inconsistency in error sectors : 0

Track 02 Filename : /Users/Chad/Desktop/What files/Bob Marley - Live Forever (2011 FLAC)/Disc 2/02 Bob Marley & The Wailers - Exodus [Live At The Stanley Theatre - 9/23/1980].flac

Track gain : -7.99 dB Peak : 1.000000 CRC32 hash (test run) : E7291DF8 CRC32 hash : E7291DF8 CRC32 hash (skip zero) : 8CF3D5C4 AccurateRip signature : 5CF9A41E ->Track not present in AccurateRip database. Statistics Read error : 0 Skipped (treated as error) : 0 Edge jitter error (maybe fixed) : 0 Atom jitter error (maybe fixed) : 0 Drift error (maybe fixed) : 0 Dropped bytes error (maybe fixed) : 0 Duplicated bytes error (maybe fixed) : 0 Inconsistency in error sectors : 0

Track 03 Filename : /Users/Chad/Desktop/What files/Bob Marley - Live Forever (2011 FLAC)/Disc 2/03 Bob Marley & The Wailers - Redemption Song [Live At The Stanley Theatre - 9/23/1980].flac

Track gain : -4.87 dB Peak : 1.000000 CRC32 hash (test run) : 305E9F9B CRC32 hash : 305E9F9B CRC32 hash (skip zero) : 4AD0BEFC AccurateRip signature : 986F0561 ->Track not present in AccurateRip database. Statistics Read error : 0 Skipped (treated as error) : 0 Edge jitter error (maybe fixed) : 0 Atom jitter error (maybe fixed) : 0 Drift error (maybe fixed) : 0 Dropped bytes error (maybe fixed) : 0 Duplicated bytes error (maybe fixed) : 0 Inconsistency in error sectors : 0

Track 04 Filename : /Users/Chad/Desktop/What files/Bob Marley - Live Forever (2011 FLAC)/Disc 2/04 Bob Marley & The Wailers - Coming In From The Cold [Live At The Stanley Theatre - 9/23/1980].flac

Track gain : -6.55 dB Peak : 1.000000 CRC32 hash (test run) : F7534E58 CRC32 hash : F7534E58 CRC32 hash (skip zero) : 63B384D0 AccurateRip signature : 6F8E3E3D ->Track not present in AccurateRip database. Statistics Read error : 0 Skipped (treated as error) : 0 Edge jitter error (maybe fixed) : 0 Atom jitter error (maybe fixed) : 0 Drift error (maybe fixed) : 0 Dropped bytes error (maybe fixed) : 0 Duplicated bytes error (maybe fixed) : 0 Inconsistency in error sectors : 0

Track 05 Filename : /Users/Chad/Desktop/What files/Bob Marley - Live Forever (2011 FLAC)/Disc 2/05 Bob Marley & The Wailers - Could You Be Loved [Live At The Stanley Theatre - 9/23/1980].flac

Track gain : -7.89 dB Peak : 1.000000 CRC32 hash (test run) : 45A19B14 CRC32 hash : 45A19B14 CRC32 hash (skip zero) : E1AB9FD0 AccurateRip signature : 04E2193C ->Track not present in AccurateRip database. Statistics Read error : 0 Skipped (treated as error) : 0 Edge jitter error (maybe fixed) : 0 Atom jitter error (maybe fixed) : 0 Drift error (maybe fixed) : 0 Dropped bytes error (maybe fixed) : 0 Duplicated bytes error (maybe fixed) : 0 Inconsistency in error sectors : 0

Track 06 Filename : /Users/Chad/Desktop/What files/Bob Marley - Live Forever (2011 FLAC)/Disc 2/06 Bob Marley & The Wailers - Is This Love [Live At The Stanley Theatre - 9/23/1980].flac

Track gain : -7.46 dB Peak : 1.000000 CRC32 hash (test run) : 9478173D CRC32 hash : 9478173D CRC32 hash (skip zero) : 5DB7706B AccurateRip signature : F1EDFEBC ->Track not present in AccurateRip database. Statistics Read error : 0 Skipped (treated as error) : 0 Edge jitter error (maybe fixed) : 0 Atom jitter error (maybe fixed) : 0 Drift error (maybe fixed) : 0 Dropped bytes error (maybe fixed) : 0 Duplicated bytes error (maybe fixed) : 0 Inconsistency in error sectors : 0

Track 07 Filename : /Users/Chad/Desktop/What files/Bob Marley - Live Forever (2011 FLAC)/Disc 2/07 Bob Marley & The Wailers - Work [Live At The Stanley Theatre - 9/23/1980].flac

Track gain : -9.81 dB Peak : 1.000000 CRC32 hash (test run) : FB81D161 CRC32 hash : FB81D161 CRC32 hash (skip zero) : 9618B20B AccurateRip signature : F8D6B91D ->Track not present in AccurateRip database. Statistics Read error : 0 Skipped (treated as error) : 0 Edge jitter error (maybe fixed) : 0 Atom jitter error (maybe fixed) : 0 Drift error (maybe fixed) : 0 Dropped bytes error (maybe fixed) : 0 Duplicated bytes error (maybe fixed) : 0 Inconsistency in error sectors : 0

Track 08 Filename : /Users/Chad/Desktop/What files/Bob Marley - Live Forever (2011 FLAC)/Disc 2/08 Bob Marley & The Wailers - Get Up Stand Up [Live At The Stanley Theatre - 9/23/1980].flac

Track gain : -9.79 dB Peak : 1.000000 CRC32 hash (test run) : 3753627C CRC32 hash : 3753627C CRC32 hash (skip zero) : E9B08307 AccurateRip signature : 2C4E9E47 ->Track not present in AccurateRip database. Statistics Read error : 0 Skipped (treated as error) : 0 Edge jitter error (maybe fixed) : 0 Atom jitter error (maybe fixed) : 0 Drift error (maybe fixed) : 0 Dropped bytes error (maybe fixed) : 0 Duplicated bytes error (maybe fixed) : 0 Inconsistency in error sectors : 0

No errors occurred

End of status report
 
TITLE "Live Forever: The Stanley Theatre, Pittsburgh, PA, September 23, 1980 (Disc 2)"PERFORMER "Bob Marley & The Wailers"CATALOG 0602527604213REM GENRE "Reggae"REM DATE 2011REM DISCNUMBER 2REM TOTALDISCS 2REM DISCID 6609BA08FILE "01 Bob Marley & The Wailers - Jamming.wav" WAVE TRACK 01 AUDIO TITLE "Jamming" SONGWRITER "Bob Marley" ISRC USUM71029407 INDEX 01 00:00:00FILE "02 Bob Marley & The Wailers - Exodus.wav" WAVE TRACK 02 AUDIO TITLE "Exodus" SONGWRITER "Bob Marley" ISRC USUM71029408 INDEX 01 00:00:00FILE "03 Bob Marley & The Wailers - Redemption Song.wav" WAVE TRACK 03 AUDIO TITLE "Redemption Song" SONGWRITER "Bob Marley" ISRC USUM71029409 INDEX 01 00:00:00FILE "04 Bob Marley & The Wailers - Coming In From The Cold.wav" WAVE TRACK 04 AUDIO TITLE "Coming In From The Cold" SONGWRITER "Bob Marley" ISRC USUM71029410 INDEX 01 00:00:00FILE "05 Bob Marley & The Wailers - Could You Be Loved.wav" WAVE TRACK 05 AUDIO TITLE "Could You Be Loved" SONGWRITER "Bob Marley" ISRC USUM71029411 INDEX 01 00:00:00FILE "06 Bob Marley & The Wailers - Is This Love.wav" WAVE TRACK 06 AUDIO TITLE "Is This Love" SONGWRITER "Bob Marley" ISRC USUM71029412 INDEX 01 00:00:00FILE "07 Bob Marley & The Wailers - Work.wav" WAVE TRACK 07 AUDIO TITLE "Work" SONGWRITER "Bob Marley" ISRC USUM71029413 INDEX 01 00:00:00FILE "08 Bob Marley & The Wailers - Get Up Stand Up.wav" WAVE TRACK 08 AUDIO TITLE "Get Up Stand Up" SONGWRITER "Peter Tosh" ISRC USUM71029414 INDEX 01 00:00:00
 
Exact Audio Copy V1.0 beta 1 from 15. November 2010

EAC extraction logfile from 4. February 2011, 14:49

Bob Marley and the Wailers / Live Forever Bonus Disc

Used drive : HL-DT-STDVD-RAM GH22LS30 Adapter: 3 ID: 0

Read mode : SecureUtilize accurate stream : YesDefeat audio cache : YesMake use of C2 pointers : No

Read offset correction : 102Overread into Lead-In and Lead-Out : NoFill up missing offset samples with silence : YesDelete leading and trailing silent blocks : NoNull samples used in CRC calculations : YesUsed interface : Native Win32 interface for Win NT & 2000Gap handling : Appended to previous track

Used output format : Internal WAV RoutinesSample format : 44.100 Hz; 16 Bit; Stereo

TOC of the extracted CD

Track | Start | Length | Start sector | End sector --------------------------------------------------------- 1 | 0:00.00 | 3:44.60 | 0 | 16859 2 | 3:44.60 | 9:18.40 | 16860 | 58749 3 | 13:03.25 | 5:03.57 | 58750 | 81531 4 | 18:07.07 | 3:14.65 | 81532 | 96146 5 | 21:21.72 | 6:26.06 | 96147 | 125102 6 | 30:20.03 | 26:36.03 | 136503 | 256205

Track 1

Filename F:\Ripped Albums\Bob Marley and the Wailers-Live Forever Bonus Disc\01-I Know A Place.wav

Pre-gap length 0:00:02.00

Peak level 98.7 % Extraction speed 1.4 X Track quality 99.9 % Test CRC D48996F3 Copy CRC D48996F3 Track not present in AccurateRip database Copy OK

Track 2

Filename F:\Ripped Albums\Bob Marley and the Wailers-Live Forever Bonus Disc\02-Punky Reggae Party (Jamaican 12'' Version).wav

Peak level 99.9 % Extraction speed 2.1 X Track quality 99.9 % Test CRC 2AFBE1B2 Copy CRC 2AFBE1B2 Track not present in AccurateRip database Copy OK

Track 3

Filename F:\Ripped Albums\Bob Marley and the Wailers-Live Forever Bonus Disc\03-Smile Jamaica.wav

Peak level 99.8 % Extraction speed 2.4 X Track quality 100.0 % Test CRC 36B44FFF Copy CRC 36B44FFF Track not present in AccurateRip database Copy OK

Track 4

Filename F:\Ripped Albums\Bob Marley and the Wailers-Live Forever Bonus Disc\04-Who Colt The Game.wav

Peak level 100.0 % Extraction speed 2.4 X Track quality 100.0 % Test CRC 0E1725EF Copy CRC 0E1725EF Track not present in AccurateRip database Copy OK

Track 5

Filename F:\Ripped Albums\Bob Marley and the Wailers-Live Forever Bonus Disc\05-Keep On Moving.wav

Peak level 99.8 % Extraction speed 2.7 X Track quality 100.0 % Test CRC 0F48532D Copy CRC 0F48532D Track not present in AccurateRip database Copy OK

None of the tracks are present in the AccurateRip database

No errors occurred

End of status report
 
REM GENRE ReggaeREM DATE 2011REM DISCID 4D0D5806REM COMMENT "ExactAudioCopy v1.0b1"PERFORMER "Bob Marley & The Wailers"TITLE "Live Forever (Bonus Disc)"FILE "01 - I Know A Place.wav" WAVE TRACK 01 AUDIO TITLE "I Know A Place" PERFORMER "Bob Marley & The Wailers" INDEX 01 00:00:00FILE "02 - Punky Reggae Party (Jamaican 12'' Version).wav" WAVE TRACK 02 AUDIO TITLE "Punky Reggae Party (Jamaican 12' Version)" PERFORMER "Bob Marley & The Wailers" INDEX 01 00:00:00FILE "03 - Smile Jamaica.wav" WAVE TRACK 03 AUDIO TITLE "Smile Jamaica" PERFORMER "Bob Marley & The Wailers" INDEX 01 00:00:00FILE "04 - Who Colt The Game.wav" WAVE TRACK 04 AUDIO TITLE "Who Colt The Game" PERFORMER "Bob Marley & The Wailers" INDEX 01 00:00:00FILE "05 - Keep On Moving.wav" WAVE TRACK 05 AUDIO TITLE "Keep On Moving" PERFORMER "Bob Marley & The Wailers" INDEX 01 00:00:00 TRACK 06 MODEx/2xxx TITLE "Marley Family Interview" PERFORMER "Bob Marley & The Wailers" INDEX 00 06:26:06


Трекер:  [ 15-Фев-2011 13:06 ]

  

Скачать .torrent

Размер .torrent файла 20 KB


Размер: 861 MB
Хэш (hash) релиза: bc9166bb5cb42fd6860090ebe24ea5f35f2b3c56

Еще никто не оставлял запись к записи скачать торрент Bob Marley & The Wailers - Live Forever: The Stanley Theatre, Pittsburgh, PA, September 23, 1980 . Будь первым!

!Обратная связь