Skippy, der Buschpilot | Donald MacBride | Todo List

Скачать через торрент музыку Groundation - Дискография, FLAC бесплатно без регистрации torrent

Статистика раздачи
Размер:  1.87 GB   |    Зарегистрирован:  7 лет 5 месяцев   |    .torrent скачан:  94 раза   |   
Раздают:  1  
   
загрузка...
 
Автор Сообщение

Fent

avatar Fent


Mos писал(а):

1999 - Young Tree (Remastered by Jim Fox) (2002) - ? Возможно неточный рип
2001 - Each One Teach One - ? Возможно неточный рип
2002 - Hebron Gate - ? Возможно неточный рип
2004 - We Free Again - ! Неточный рип
2006 - Upon The Bridge - ? Возможно неточный рип
Groundation - Дискография

Жанр: Reggae
Производитель диска: USA
Аудио кодек: FLAC
Тип рипа: tracks+.cue
Битрейт аудио: lossless
Продолжительность: 05:07:37
Трэклист:
01. Long, Long Ago (06:51)
02. Glory To The Kings (07:11)
03. Confusing Situation (04:54)
04. Congress Man (04:16)
05. Craven fe' Dead (05:29)
06. Dream (05:39)
07. Young Tree (05:56)
08. Vibes Alive (05:30)
09. Groundation Chant (06:50)
10. Groundation Dub (06:53)
EAC extraction logfile from 8. January 2007, 20:56 for CD
Groundation / Young Tree

Used drive : _NEC DVD_RW ND-3540A Adapter: 0 ID: 0
Read mode : Secure with NO C2, accurate stream, disable cache
Read offset correction : 48
Overread into Lead-In and Lead-Out : No

Used output format : C:\Program Files\FLAC\flac.exe (User Defined Encoder)
320 kBit/s
Additional command line options : -V -8 -T "artist=%a" -T "title=%t" -T "album=%g" -T "date=%y" -T "tracknumber=%n" -T "genre=%m" %s

Other options :
Fill up missing offset samples with silence : Yes
Delete leading and trailing silent blocks : No
Installed external ASPI interface

Track 1
Filename C:\Documents and Settings\david\Desktop\choke\My Albums\My Rips\Groundation - Young Tree [Remastered by Jim Fox] - 2002 FLAC\01 - Groundation - Long, Long Ago.wav

Pre-gap length 0:00:02.00

Peak level 98.2 %
Track quality 100.0 %
Test CRC 9605986D
Copy CRC 9605986D
Copy OK

Track 2
Filename C:\Documents and Settings\david\Desktop\choke\My Albums\My Rips\Groundation - Young Tree [Remastered by Jim Fox] - 2002 FLAC\02 - Groundation - Glory To The Kings.wav

Peak level 99.3 %
Track quality 100.0 %
Test CRC AEB9A756
Copy CRC AEB9A756
Copy OK

Track 3
Filename C:\Documents and Settings\david\Desktop\choke\My Albums\My Rips\Groundation - Young Tree [Remastered by Jim Fox] - 2002 FLAC\03 - Groundation - Confusing Situation.wav

Pre-gap length 0:00:01.93

Peak level 99.4 %
Track quality 100.0 %
Test CRC 7585FF77
Copy CRC 7585FF77
Copy OK

Track 4
Filename C:\Documents and Settings\david\Desktop\choke\My Albums\My Rips\Groundation - Young Tree [Remastered by Jim Fox] - 2002 FLAC\04 - Groundation - Congress Man.wav

Pre-gap length 0:00:01.62

Peak level 99.3 %
Track quality 100.0 %
Test CRC 71E22DAF
Copy CRC 71E22DAF
Copy OK

Track 5
Filename C:\Documents and Settings\david\Desktop\choke\My Albums\My Rips\Groundation - Young Tree [Remastered by Jim Fox] - 2002 FLAC\05 - Groundation - Craven fe' Dead.wav

Pre-gap length 0:00:01.82

Peak level 99.4 %
Track quality 100.0 %
Test CRC C011523C
Copy CRC C011523C
Copy OK

Track 6
Filename C:\Documents and Settings\david\Desktop\choke\My Albums\My Rips\Groundation - Young Tree [Remastered by Jim Fox] - 2002 FLAC\06 - Groundation - Dream.wav

Pre-gap length 0:00:03.06

Peak level 99.4 %
Track quality 100.0 %
Test CRC 2F071367
Copy CRC 2F071367
Copy OK

Track 7
Filename C:\Documents and Settings\david\Desktop\choke\My Albums\My Rips\Groundation - Young Tree [Remastered by Jim Fox] - 2002 FLAC\07 - Groundation - Young Tree.wav

Pre-gap length 0:00:03.78

Peak level 99.4 %
Track quality 100.0 %
Test CRC 4D443444
Copy CRC 4D443444
Copy OK

Track 8
Filename C:\Documents and Settings\david\Desktop\choke\My Albums\My Rips\Groundation - Young Tree [Remastered by Jim Fox] - 2002 FLAC\08 - Groundation - Vibes Alive.wav

Pre-gap length 0:00:03.33

Peak level 99.4 %
Track quality 100.0 %
Test CRC 2758FBD0
Copy CRC 2758FBD0
Copy OK

Track 9
Filename C:\Documents and Settings\david\Desktop\choke\My Albums\My Rips\Groundation - Young Tree [Remastered by Jim Fox] - 2002 FLAC\09 - Groundation - Groundation Chant.wav

Pre-gap length 0:00:02.72

Peak level 99.2 %
Track quality 100.0 %
Test CRC 1C989C20
Copy CRC 1C989C20
Copy OK

Track 10
Filename C:\Documents and Settings\david\Desktop\choke\My Albums\My Rips\Groundation - Young Tree [Remastered by Jim Fox] - 2002 FLAC\10 - Groundation - Groundation Dub.wav

Peak level 98.5 %
Track quality 100.0 %
Test CRC B32D9BB5
Copy CRC B32D9BB5
Copy OK

No errors occured

End of status report
01. Weak Heart (05:17)
02. We Na Forget (Rome) (04:55)
03. Wanna Know (05:55)
04. Throwing Stones (06:46)
05. One More Day (Live It Up) (05:59)
06. Head Strong (05:25)
07. If I (05:07)
08. Waterfall (05:44)
09. Nyabinghi Order (07:39)
10. Jah Spirit (06:39)
11. Each One Teach One (05:40)
EAC extraction logfile from 4. August 2007, 15:05 for CD
Groundation / Groundation - Each One Teach One

Used drive : SONY DVD-ROM DDU1615 Adapter: 0 ID: 0
Read mode : Secure with C2, accurate stream, disable cache
Read offset correction : 6
Overread into Lead-In and Lead-Out : No

Used output format : C:\Program Files\Exact Audio Copy\flac.exe. (User Defined Encoder)
192 kBit/s
Additional command line options : 8 -A tukey(0.25) -A gauss(0.1875) -b 4096 -V -T "artist=%a" -T "title=%t" -T "album=%g" -T "date=%y" -T "tracknumber=%n" -T "genre=%m" %s --sector-align

Other options :
Fill up missing offset samples with silence : Yes
Delete leading and trailing silent blocks : No
Installed external ASPI interface

Track 1
Filename F:\Oink Music\Groundation - Each One Teach One\01 - Groundation - Weak Heart.wav

Pre-gap length 0:00:02.00

Peak level 100.0 %
Track quality 100.0 %
Test CRC FA15BA3C
Copy CRC FA15BA3C
Copy OK

Track 2
Filename F:\Oink Music\Groundation - Each One Teach One\02 - Groundation - We Na Forget (Rome).wav

Peak level 100.0 %
Track quality 100.0 %
Test CRC 168A214C
Copy CRC 168A214C
Copy OK

Track 3
Filename F:\Oink Music\Groundation - Each One Teach One\03 - Groundation - Wanna Know.wav

Peak level 100.0 %
Track quality 100.0 %
Test CRC C2CB388B
Copy CRC C2CB388B
Copy OK

Track 4
Filename F:\Oink Music\Groundation - Each One Teach One\04 - Groundation - Throwing Stones.wav

Pre-gap length 0:00:01.74

Peak level 100.0 %
Track quality 100.0 %
Test CRC 0C65EF3F
Copy CRC 0C65EF3F
Copy OK

Track 5
Filename F:\Oink Music\Groundation - Each One Teach One\05 - Groundation - One More Day (Live It Up).wav

Pre-gap length 0:00:02.34

Peak level 100.0 %
Track quality 100.0 %
Test CRC FE04B71C
Copy CRC FE04B71C
Copy OK

Track 6
Filename F:\Oink Music\Groundation - Each One Teach One\06 - Groundation - Head Strong.wav

Pre-gap length 0:00:01.54

Peak level 100.0 %
Track quality 100.0 %
Test CRC 3B606584
Copy CRC 3B606584
Copy OK

Track 7
Filename F:\Oink Music\Groundation - Each One Teach One\07 - Groundation - If I.wav

Pre-gap length 0:00:01.54

Peak level 100.0 %
Track quality 100.0 %
Test CRC 83E20874
Copy CRC 83E20874
Copy OK

Track 8
Filename F:\Oink Music\Groundation - Each One Teach One\08 - Groundation - Waterfall.wav

Pre-gap length 0:00:02.02

Peak level 100.0 %
Track quality 100.0 %
Test CRC 1FB5C868
Copy CRC 1FB5C868
Copy OK

Track 9
Filename F:\Oink Music\Groundation - Each One Teach One\09 - Groundation - Nyabinghi Order.wav

Pre-gap length 0:00:01.54

Peak level 100.0 %
Track quality 100.0 %
Test CRC E854263D
Copy CRC E854263D
Copy OK

Track 10
Filename F:\Oink Music\Groundation - Each One Teach One\10 - Groundation - Jah Spirit.wav

Pre-gap length 0:00:02.50

Peak level 100.0 %
Track quality 100.0 %
Test CRC 14F2D097
Copy CRC 14F2D097
Copy OK

Track 11
Filename F:\Oink Music\Groundation - Each One Teach One\11 - Groundation - Each One Teach One.wav

Pre-gap length 0:00:00.54

Peak level 100.0 %
Track quality 100.0 %
Test CRC 9A057866
Copy CRC 9A057866
Copy OK

No errors occured

End of status report
01. Jah Jah know (06:04)
02. Babylon Rule Dem (07:04)
03. Silver Tongue Show (06:09)
04. Weeping Pirates (06:44)
05. Picture On The Wall (06:11)
06. Something More (04:54)
07. Hebron (05:09)
08. Freedom Taking Over (06:02)
09. Undivided (05:52)
EAC extraction logfile from 26. June 2008, 19:09 for CD
Groundation / Hebron Gate

Used drive : SONY CDRW/DVD CRX830E Adapter: 0 ID: 0
Read mode : Secure with NO C2, accurate stream, disable cache
Read offset correction : 6
Overread into Lead-In and Lead-Out : No

Used output format : C:\Program Files\Exact Audio Copy\flac.exe (User Defined Encoder)
192 kBit/s
Additional command line options : -8 -A tukey(0.25) -A gauss(0.1875) -b 4096 -V -T "artist=%a" -T "title=%t" -T "album=%g" -T "date=%y" -T "tracknumber=%n" -T "genre=%m" %s --sector-align

Other options :
Fill up missing offset samples with silence : Yes
Delete leading and trailing silent blocks : No
Installed external ASPI interface

Track 1
Filename E:\Music\what.cd\Groundation - Hebron Gate [FLAC]\01 - Groundation - Jah Jah know.wav

Pre-gap length 0:00:02.00

Peak level 100.0 %
Track quality 100.0 %
Test CRC 654F80AD
Copy CRC 654F80AD
Copy OK

Track 2
Filename E:\Music\what.cd\Groundation - Hebron Gate [FLAC]\02 - Groundation - Babylon Rule Dem.wav

Pre-gap length 0:00:01.10

Peak level 98.3 %
Track quality 99.9 %
Test CRC DDFAAA38
Copy CRC DDFAAA38
Copy OK

Track 3
Filename E:\Music\what.cd\Groundation - Hebron Gate [FLAC]\03 - Groundation - Silver Tongue Show.wav

Pre-gap length 0:00:01.26

Peak level 93.2 %
Track quality 100.0 %
Test CRC 3EBFF7D2
Copy CRC 3EBFF7D2
Copy OK

Track 4
Filename E:\Music\what.cd\Groundation - Hebron Gate [FLAC]\04 - Groundation - Weeping Pirates.wav

Pre-gap length 0:00:02.32

Peak level 97.6 %
Track quality 100.0 %
Test CRC 2092F5E0
Copy CRC 2092F5E0
Copy OK

Track 5
Filename E:\Music\what.cd\Groundation - Hebron Gate [FLAC]\05 - Groundation - Picture On The Wall.wav

Pre-gap length 0:00:00.69

Peak level 93.6 %
Track quality 100.0 %
Test CRC FBD751D2
Copy CRC FBD751D2
Copy OK

Track 6
Filename E:\Music\what.cd\Groundation - Hebron Gate [FLAC]\06 - Groundation - Something More.wav

Pre-gap length 0:00:02.53

Peak level 94.5 %
Track quality 100.0 %
Test CRC 0AB11AE4
Copy CRC 0AB11AE4
Copy OK

Track 7
Filename E:\Music\what.cd\Groundation - Hebron Gate [FLAC]\07 - Groundation - Hebron.wav

Pre-gap length 0:00:03.45

Peak level 94.1 %
Track quality 99.9 %
Test CRC 9AA4B28B
Copy CRC 9AA4B28B
Copy OK

Track 8
Filename E:\Music\what.cd\Groundation - Hebron Gate [FLAC]\08 - Groundation - Freedom Taking Over.wav

Peak level 94.0 %
Track quality 100.0 %
Test CRC 948CE602
Copy CRC 948CE602
Copy OK

Track 9
Filename E:\Music\what.cd\Groundation - Hebron Gate [FLAC]\09 - Groundation - Undivided.wav

Pre-gap length 0:00:02.35

Peak level 96.5 %
Track quality 99.9 %
Test CRC B0B54304
Copy CRC B0B54304
Copy OK

No errors occured

End of status report
1. Praising (06:02)
2. Dem Rise (07:12)
3. Suffer The Right (05:21)
4. Music Is The Most High (06:56)
5. Wish Them Well (05:51)
6. We Free Again (06:12)
7. Smile (06:33)
8. Fourth Demension (04:13)
9. Feel Jah (04:39)
10. Cultural Wars I (02:05)
11. Cultural Wars II (03:04)
12. Cultural Wars III (02:00)
13. Cultural Wars IV (04:58)
14. The Seventh Seal (06:11)
EAC extraction logfile from 4. May 2006, 17:14 for CD
Groundation / We Free Again

Used drive : SAMSUNG CD-R/RW SW-252F Adapter: 1 ID: 0
Read mode : Secure with NO C2, accurate stream, disable cache
Read offset correction : 0
Overread into Lead-In and Lead-Out : No

Used output format : D:\Program Files\eac095b2\Profiles\flac-1.1.2-win\bin\flac.exe (User Defined Encoder)
320 kBit/s
Additional command line options : -V -T "artist=%a" -T "title=%t" -T "album=%g" -T "date=%y" -T "tracknumber=%n" -T "genre=%m" -T "comment=High Quality, EAC secure, Lossless flac " %s

Other options :
Fill up missing offset samples with silence : Yes
Delete leading and trailing silent blocks : No
Native Win32 interface for Win NT & 2000

Track 1
Filename F:\[XCT]\Praising.wav

Peak level 98.8 %
Track quality 99.9 %
Copy CRC F990FD75
Copy OK

Track 2
Filename F:\[XCT]\Dem Rise.wav

Peak level 98.8 %
Track quality 100.0 %
Copy CRC FC25715D
Copy OK

Track 3
Filename F:\[XCT]\Suffer The Right.wav

Peak level 98.8 %
Track quality 99.9 %
Copy CRC 4A69733B
Copy OK

Track 4
Filename F:\[XCT]\Music Is The Most High.wav

Peak level 98.8 %
Track quality 100.0 %
Copy CRC CFD3BAB9
Copy OK

Track 5
Filename F:\[XCT]\Wish Them Well.wav

Peak level 98.8 %
Track quality 100.0 %
Copy CRC F6B3A9B8
Copy OK

Track 6
Filename F:\[XCT]\We Free Again.wav

Peak level 98.8 %
Track quality 100.0 %
Copy CRC 4FABACF7
Copy OK

Track 7
Filename F:\[XCT]\Smile.wav

Peak level 98.8 %
Track quality 100.0 %
Copy CRC 73CA642C
Copy OK

Track 8
Filename F:\[XCT]\Fourth Demension.wav

Peak level 98.8 %
Track quality 100.0 %
Copy CRC 38A0B595
Copy OK

Track 9
Filename F:\[XCT]\Feel Jah.wav

Peak level 98.8 %
Track quality 100.0 %
Copy CRC 3F0AFA98
Copy OK

Track 10
Filename F:\[XCT]\Cultural Wars I.wav

Peak level 98.8 %
Track quality 100.0 %
Copy CRC B66747AA
Copy OK

Track 11
Filename F:\[XCT]\Cultural Wars II.wav

Peak level 98.8 %
Track quality 100.0 %
Copy CRC A20FA5EB
Copy OK

Track 12
Filename F:\[XCT]\Cultural Wars III.wav

Peak level 98.8 %
Track quality 99.9 %
Copy CRC D8245BCB
Copy OK

Track 13
Filename F:\[XCT]\Cultural Wars IV.wav

Peak level 98.8 %
Track quality 100.0 %
Copy CRC F6960637
Copy OK

Track 14
Filename F:\[XCT]\The Seventh Seal.wav

Peak level 98.8 %
Track quality 100.0 %
Copy CRC 6071F286
Copy OK

No errors occured

End of status report
01. What Could Have Been (05:42)
02. Down (04:16)
03. Me Na In De (04:19)
04. Ratant Crow (04:59)
05. Nonbeliever (06:26)
06. Upon the Bridge (04:58)
07. Used to Laugh (04:56)
08. Fight All You Can (04:01)
09. Mighty Souls (05:11)
10. Sleeping Bag-O-Wire (05:54)
11. the Seesaw (06:54)
EAC extraction logfile from 27. June 2008, 19:13 for CD
Groundation / Upon The Bridge

Used drive : SONY CDRW/DVD CRX830E Adapter: 0 ID: 0
Read mode : Secure with NO C2, accurate stream, disable cache
Read offset correction : 6
Overread into Lead-In and Lead-Out : No

Used output format : C:\Program Files\Exact Audio Copy\flac.exe (User Defined Encoder)
192 kBit/s
Additional command line options : -8 -A tukey(0.25) -A gauss(0.1875) -b 4096 -V -T "artist=%a" -T "title=%t" -T "album=%g" -T "date=%y" -T "tracknumber=%n" -T "genre=%m" %s --sector-align

Other options :
Fill up missing offset samples with silence : Yes
Delete leading and trailing silent blocks : No
Installed external ASPI interface

Track 1
Filename E:\Music\what.cd\Groundation - Upon The Bridge [FLAC]\01 - Groundation - What Could Have Been.wav

Pre-gap length 0:00:02.00

Peak level 99.4 %
Track quality 100.0 %
Test CRC A65468B6
Copy CRC A65468B6
Copy OK

Track 2
Filename E:\Music\what.cd\Groundation - Upon The Bridge [FLAC]\02 - Groundation - Down.wav

Peak level 99.6 %
Track quality 100.0 %
Test CRC 3A929365
Copy CRC 3A929365
Copy OK

Track 3
Filename E:\Music\what.cd\Groundation - Upon The Bridge [FLAC]\03 - Groundation - Me Na In De.wav

Peak level 99.7 %
Track quality 100.0 %
Test CRC 58178C31
Copy CRC 58178C31
Copy OK

Track 4
Filename E:\Music\what.cd\Groundation - Upon The Bridge [FLAC]\04 - Groundation - Ratant Crow.wav

Peak level 99.8 %
Track quality 100.0 %
Test CRC E481925A
Copy CRC E481925A
Copy OK

Track 5
Filename E:\Music\what.cd\Groundation - Upon The Bridge [FLAC]\05 - Groundation - Nonbeliever.wav

Pre-gap length 0:00:00.69

Peak level 99.8 %
Track quality 100.0 %
Test CRC 209C52E1
Copy CRC 209C52E1
Copy OK

Track 6
Filename E:\Music\what.cd\Groundation - Upon The Bridge [FLAC]\06 - Groundation - Upon the Bridge.wav

Pre-gap length 0:00:01.57

Peak level 99.8 %
Track quality 99.9 %
Test CRC 8AFBB29A
Copy CRC 8AFBB29A
Copy OK

Track 7
Filename E:\Music\what.cd\Groundation - Upon The Bridge [FLAC]\07 - Groundation - Used to Laugh.wav

Pre-gap length 0:00:02.02

Peak level 99.8 %
Track quality 99.9 %
Test CRC B3674EAE
Copy CRC B3674EAE
Copy OK

Track 8
Filename E:\Music\what.cd\Groundation - Upon The Bridge [FLAC]\08 - Groundation - Fight All You Can.wav

Pre-gap length 0:00:00.11

Peak level 99.5 %
Track quality 100.0 %
Test CRC 36D76745
Copy CRC 36D76745
Copy OK

Track 9
Filename E:\Music\what.cd\Groundation - Upon The Bridge [FLAC]\09 - Groundation - Mighty Souls.wav

Pre-gap length 0:00:03.32

Peak level 99.5 %
Track quality 100.0 %
Test CRC 926666EC
Copy CRC 926666EC
Copy OK

Track 10
Filename E:\Music\what.cd\Groundation - Upon The Bridge [FLAC]\10 - Groundation - Sleeping Bag-O-Wire.wav

Peak level 99.6 %
Track quality 100.0 %
Test CRC CC40AB3D
Copy CRC CC40AB3D
Copy OK

Track 11
Filename E:\Music\what.cd\Groundation - Upon The Bridge [FLAC]\11 - Groundation - the Seesaw.wav

Pre-gap length 0:00:01.10

Peak level 99.8 %
Track quality 100.0 %
Test CRC 3EBF4158
Copy CRC 3EBF4158
Copy OK

No errors occured

End of status report
Доп. информация:
Название Groundation было дано, чтобы попытаться поставить всех на один уровень, чтобы люди могли общаться, могли учиться друг у друга, чтобы не было какой-либо иерархии, или разделения на классы. Groundation были основаны в конце 1998, когда три музыканта, Маркус Урани (Marcus Urani), Райан Ньюман (Ryan Newman) и Харрисон Стаффорд (Harrison Stafford) собрались, чтобы положить основу группе. Позже, в 2000, к ним присоединился джазовый трубач Дэвид Чешер (David Chachere), и тромбонист Келси Хоуард (Kelsey Howard). Саксофонист Джейсон Робинсон (Jason Robinson) ушел из группы, чтобы вдохнуть новую жизнь в джаз Южной Калифорнии. Барабанщик Пол Спина (Paul Spina), присоединился к группе, вместо ушедшего Джеймса Стаффорда (James Stafford) в декабре 2001.
Groundation появились из недр студии со своим 4-м альбомом «We Free Again» в ноябре 2004, вызвавшим бурную реакцию слушателей. Музыка, свежая и новая, еще раз доказывает, что Groundation остаются верны своей цели – расширять границы классического реггей. Их предыдущий релиз «Hebron Gate» получил мировое признание, включая номинацию на немецкую премию «World Music Award». Для этого релиза, Groundation впервые в истории реггей, обьединили усилия Эппла Гэбриэла(Apple Gabriel) из Israel Vibration и Дона Карлоса (Don Carlos) из Black Uhuru.
В рипе We Free Again есть один недочёт: Read offset correction : 0

Трекер:  [ 15-Фев-2011 13:05 ]

  

Скачать .torrent

Размер .torrent файла 25 KB


Размер: 1.87 GB
Хэш (hash) релиза: 56c4b5a51d70e92952e200c44247823fb270e7a7

Еще никто не оставлял запись к записи скачать торрент Groundation - Дискография, FLAC . Будь первым!

!Обратная связь