Download Torrent | film de Mike Nichols | 7 jours pas plus streaming

Скачать через торрент музыку Dreadzone - Eye On The Horizon - 2010, FLAC бесплатно без регистрации torrent

Статистика раздачи
Размер:  357 MB   |    Зарегистрирован:  7 лет 5 месяцев   |    .torrent скачан:  98 раз   |   
Раздают:  1  
   
загрузка...
 
Автор Сообщение

Fent

avatar Fent


Dreadzone / Eye On The Horizon
Жанр: Reggae, Dub
Год издания диска: 2010
Издатель (лейбл): Dubwiser Records
Аудио кодек: FLAC (*.flac)
Тип рипа: tracks+.cue
Битрейт аудио: lossless
Продолжительность: 54:14
Источник (релизер): Kraus
Наличие сканов в содержимом раздачи: нет
Треклист:
1. Tomorrow Never Comes 6:18
2. For A Reason 4:56
3. Changes 5:15
4. American Dread 6:22
5. Beyond A Rock 4:06
6. Gangster 2:50
7. Yeah Man 5:53
8. My Face 5:52
9. Walk Tall 6:50
10. Just Let Go 6:03
 
Exact Audio Copy V0.99 prebeta 3 from 28. July 2007

EAC extraction logfile from 16. June 2010, 12:41

Dreadzone / Eye On The Horizon

Used drive : ASUS DRW-2014L1T Adapter: 3 ID: 0

Read mode : SecureUtilize accurate stream : YesDefeat audio cache : YesMake use of C2 pointers : No

Read offset correction : 6Overread into Lead-In and Lead-Out : NoFill up missing offset samples with silence : YesDelete leading and trailing silent blocks : NoNull samples used in CRC calculations : YesUsed interface : Native Win32 interface for Win NT & 2000Gap handling : Appended to previous track

Used output format : User Defined EncoderSelected bitrate : 320 kBit/sQuality : HighAdd ID3 tag : NoCommand line compressor : C:\Program Files (x86)\FLAC\flac.exeAdditional command line options : -V -8 -T "artist=%a" -T "title=%t" -T "album=%g" -T "date=%y" -T "tracknumber=%n" -T "genre=%m" %s

TOC of the extracted CD

Track | Start | Length | Start sector | End sector --------------------------------------------------------- 1 | 0:00.00 | 6:18.43 | 0 | 28392 2 | 6:18.43 | 4:56.24 | 28393 | 50616 3 | 11:14.67 | 5:15.46 | 50617 | 74287 4 | 16:30.38 | 6:22.69 | 74288 | 103006 5 | 22:53.32 | 4:06.57 | 103007 | 121513 6 | 27:00.14 | 2:50.40 | 121514 | 134303 7 | 29:50.54 | 5:52.72 | 134304 | 160775 8 | 35:43.51 | 5:52.04 | 160776 | 187179 9 | 41:35.55 | 6:50.19 | 187180 | 217948 10 | 48:25.74 | 5:48.27 | 217949 | 244075

Track 1

Filename C:\EAC\Dreadzone - 2010 - Eye On The Horizon [FLAC]\01 - Tomorrow Never Comes.wav

Pre-gap length 0:00:02.00

Peak level 97.3 % Track quality 100.0 % Test CRC A3D24EF6 Copy CRC A3D24EF6 Accurately ripped (confidence 3) [45816B3A] Copy OK

Track 2

Filename C:\EAC\Dreadzone - 2010 - Eye On The Horizon [FLAC]\02 - For A Reason.wav

Peak level 96.6 % Track quality 100.0 % Test CRC 6C1A1230 Copy CRC 6C1A1230 Accurately ripped (confidence 3) [D122BF43] Copy OK

Track 3

Filename C:\EAC\Dreadzone - 2010 - Eye On The Horizon [FLAC]\03 - Changes.wav

Pre-gap length 0:00:01.16

Peak level 96.7 % Track quality 100.0 % Test CRC 616A43C4 Copy CRC 616A43C4 Accurately ripped (confidence 3) [1423160A] Copy OK

Track 4

Filename C:\EAC\Dreadzone - 2010 - Eye On The Horizon [FLAC]\04 - American Dread.wav

Peak level 96.6 % Track quality 100.0 % Test CRC 3A520720 Copy CRC 3A520720 Accurately ripped (confidence 3) [325B72B3] Copy OK

Track 5

Filename C:\EAC\Dreadzone - 2010 - Eye On The Horizon [FLAC]\05 - Beyond A Rock.wav

Peak level 97.2 % Track quality 100.0 % Test CRC EFC204C0 Copy CRC EFC204C0 Accurately ripped (confidence 3) [66CF350B] Copy OK

Track 6

Filename C:\EAC\Dreadzone - 2010 - Eye On The Horizon [FLAC]\06 - Gangster.wav

Peak level 96.4 % Track quality 100.0 % Test CRC 543878FE Copy CRC 543878FE Accurately ripped (confidence 3) [7E4B7A59] Copy OK

Track 7

Filename C:\EAC\Dreadzone - 2010 - Eye On The Horizon [FLAC]\07 - Yeah Man.wav

Peak level 96.7 % Track quality 99.9 % Test CRC 5BE39F7F Copy CRC 5BE39F7F Accurately ripped (confidence 3) [FF50DA84] Copy OK

Track 8

Filename C:\EAC\Dreadzone - 2010 - Eye On The Horizon [FLAC]\08 - My Face.wav

Peak level 96.7 % Track quality 100.0 % Test CRC 56BE837E Copy CRC 56BE837E Accurately ripped (confidence 3) [74D3E5A5] Copy OK

Track 9

Filename C:\EAC\Dreadzone - 2010 - Eye On The Horizon [FLAC]\09 - Walk Tall.wav

Pre-gap length 0:00:00.56

Peak level 96.7 % Track quality 100.0 % Test CRC 09A0E435 Copy CRC 09A0E435 Accurately ripped (confidence 3) [A844D1A7] Copy OK

Track 10

Filename C:\EAC\Dreadzone - 2010 - Eye On The Horizon [FLAC]\10 - Just Let Go.wav

Peak level 97.0 % Track quality 99.9 % Test CRC E43A66B8 Copy CRC E43A66B8 Accurately ripped (confidence 3) [E5F4ED01] Copy OK

All tracks accurately ripped

No errors occurred

End of status report
 
REM GENRE DanceREM DATE 2010REM DISCID 960CB60AREM COMMENT "ExactAudioCopy v0.99pb3"FILE "01 - Tomorrow Never Comes.flac" WAVE TRACK 01 AUDIO FLAGS DCP INDEX 01 00:00:00FILE "02 - For A Reason.flac" WAVE TRACK 02 AUDIO FLAGS DCP INDEX 01 00:00:00 TRACK 03 AUDIO FLAGS DCP INDEX 00 04:55:12FILE "03 - Changes.flac" WAVE INDEX 01 00:00:00FILE "04 - American Dread.flac" WAVE TRACK 04 AUDIO FLAGS DCP INDEX 01 00:00:00FILE "05 - Beyond A Rock.flac" WAVE TRACK 05 AUDIO FLAGS DCP INDEX 01 00:00:00FILE "06 - Gangster.flac" WAVE TRACK 06 AUDIO FLAGS DCP INDEX 01 00:00:00FILE "07 - Yeah Man.flac" WAVE TRACK 07 AUDIO FLAGS DCP INDEX 01 00:00:00FILE "08 - My Face.flac" WAVE TRACK 08 AUDIO FLAGS DCP INDEX 01 00:00:00 TRACK 09 AUDIO FLAGS DCP INDEX 00 05:51:37FILE "09 - Walk Tall.flac" WAVE INDEX 01 00:00:00FILE "10 - Just Let Go.flac" WAVE TRACK 10 AUDIO FLAGS DCP INDEX 01 00:00:00
 
Started at: понедельник, 22. 11. 2010. - 11:33.3310 files found

01 -===- D:\Temp\Images\1\Dreadzone - Eye On The Horizon - 2010\01 - Tomorrow Never Comes.flac Extracted successfully Conclusion: this track is MPEG with probability 95% Tempfile successfully deleted.

02 -===- D:\Temp\Images\1\Dreadzone - Eye On The Horizon - 2010\02 - For A Reason.flac Extracted successfully Conclusion: this track is CDDA with probability 100% Tempfile successfully deleted.

03 -===- D:\Temp\Images\1\Dreadzone - Eye On The Horizon - 2010\03 - Changes.flac Extracted successfully Conclusion: this track is CDDA with probability 100% Tempfile successfully deleted.

04 -===- D:\Temp\Images\1\Dreadzone - Eye On The Horizon - 2010\04 - American Dread.flac Extracted successfully Conclusion: this track is CDDA with probability 100% Tempfile successfully deleted.

05 -===- D:\Temp\Images\1\Dreadzone - Eye On The Horizon - 2010\05 - Beyond A Rock.flac Extracted successfully Conclusion: this track is CDDA with probability 100% Tempfile successfully deleted.

06 -===- D:\Temp\Images\1\Dreadzone - Eye On The Horizon - 2010\06 - Gangster.flac Extracted successfully Conclusion: this track is CDDA with probability 100% Tempfile successfully deleted.

07 -===- D:\Temp\Images\1\Dreadzone - Eye On The Horizon - 2010\07 - Yeah Man.flac Extracted successfully Conclusion: this track is CDDA with probability 100% Tempfile successfully deleted.

08 -===- D:\Temp\Images\1\Dreadzone - Eye On The Horizon - 2010\08 - My Face.flac Extracted successfully Conclusion: this track is CDDA with probability 100% Tempfile successfully deleted.

09 -===- D:\Temp\Images\1\Dreadzone - Eye On The Horizon - 2010\09 - Walk Tall.flac Extracted successfully Conclusion: this track is MPEG with probability 95% Tempfile successfully deleted.

10 -===- D:\Temp\Images\1\Dreadzone - Eye On The Horizon - 2010\10 - Just Let Go.flac Extracted successfully Conclusion: this track is CDDA with probability 76% Tempfile successfully deleted.

Finished at: понедельник, 22. 11. 2010. - 11:40.00 (operation time: 0:06.27)
The new album sees Dreadzone continue to create great dub dance pop music, a style that has helped them to become celebrated as one of the UK’s original dance music pioneers , with a style that has since spawned many sub genres.
MCing and reggae vocals partner the mix of live guitars, electronic beats and dub bass to perfection. The album features iconic samples (notably, the legendary theme from Long Good Friday on Gangster, a spoken word piece from Woody Guthrie and Dennis Brown’s Greensleeves classic Whip Them Jah on American Dread) all of which compliment the bass and beat heavy Dreadzone style perfectly.
The Dreadzone story began with Alan McGee‘s Creation Records and their first groundbreaking album 360, continuing with major waves their seminal 1995 album Second Light picking up support from John Peel (who included the album in his top ten favourite albums of all time).
The top 20 hit from that album Little Britain has since gone on to acquire classic status. Five critically acclaimed albums later they are set to remind people why the Dreadzone sound is still very much a part of the musical landscape of this country.
The core members Greg Dread, original bassmaster Leo Williams, the unmistakable MC Spee, legendary Studio One vocalist Earl 16 alongside Chris Compton on guitar and Chris Oldfield on technology make up the new line up.
Dreadzone’s influence extends not only out into the current scene as one of the pioneers of dub based music in this country, but rewinding to back in the day as the rhythm section of Big Audio Dynamite in the 1980’s. Their roots are embedded in the history of West London sound clash and with a drum and bass partnership of 25 years this year Leo and Greg are still rolling strong and rocking the nation with their distinctive rhythms.


Трекер:  [ 15-Фев-2011 13:05 ]

  

Скачать .torrent

Размер .torrent файла 15 KB


Размер: 357 MB
Хэш (hash) релиза: 7118825605b23adf34d4c1fa1ac5797f1e95e942

Еще никто не оставлял запись к записи скачать торрент Dreadzone - Eye On The Horizon - 2010, FLAC . Будь первым!

!Обратная связь