Srinivasa Rao Kota | sex game | Altered Carbon

Скачать через торрент музыку Tommy T бесплатно без регистрации torrent

Статистика раздачи
Размер:  346 MB   |    Зарегистрирован:  7 лет 6 месяцев   |    .torrent скачан:  66 раз   |   
Раздают:  1  
   
загрузка...
 
Автор Сообщение

Fent

avatar Fent


Tommy T - The Prester John Sessions

[img=right:iOtiCJlfUf]http://formofintellect.files.Хочу в бан, я тупой спамер/2011/02/prester_john_sessions.jpg[/img:iOtiCJlfUf]Жанр: World, Dub
Год выпуска диска: 2009
Лейбл: Easy Star
Аудио кодек: FLAC
Тип рипа: tracks+.cue
Битрейт аудио: lossless
Продолжительность: 50:59
Трэклист:
01 - Brothers
02 - The Call
03 - The Response (feat. Gigi)
04 - The Eighth Wonder
05 - Oromo Dub (Cushitic Dub)
06 - East-West Express
07 - Tribute to a King
08 - Beyond Falisadas
09 - September Blues
10 - Eden (feat. Gigi)
11 - Lifers (Michael G Easy Star Remix feat. Eugene Hutz & Pedro Erazo)
Доп. информация:
Сольный альбом басиста мультинационального gypsy punk cabaret бэнда Gogol Bordello на котором артист вспоминает, что он родом из Эфиопии.
 
Exact Audio Copy V0.99 prebeta 4 from 23. January 2008

EAC extraction logfile from 24. December 2009, 17:39

Tommy T / The Prester John Sessions

Used drive : TSSTcorpDVD+-RW TS-L632H Adapter: 0 ID: 0

Read mode : SecureUtilize accurate stream : YesDefeat audio cache : YesMake use of C2 pointers : No

Read offset correction : 6Overread into Lead-In and Lead-Out : NoFill up missing offset samples with silence : YesDelete leading and trailing silent blocks : NoNull samples used in CRC calculations : YesUsed interface : Native Win32 interface for Win NT & 2000Gap handling : Appended to previous track

Used output format : User Defined EncoderSelected bitrate : 128 kBit/sQuality : HighAdd ID3 tag : NoCommand line compressor : C:\Program Files\FLAC\flac.exeAdditional command line options : -V -8 -T "artist=%a" -T "title=%t" -T "album=%g" -T "date=%y" -T "tracknumber=%n" -T "genre=%m" %s

TOC of the extracted CD

Track | Start | Length | Start sector | End sector --------------------------------------------------------- 1 | 0:00.00 | 5:03.20 | 0 | 22744 2 | 5:03.20 | 4:04.41 | 22745 | 41085 3 | 9:07.61 | 4:43.25 | 41086 | 62335 4 | 13:51.11 | 6:51.53 | 62336 | 93213 5 | 20:42.64 | 4:34.42 | 93214 | 113805 6 | 25:17.31 | 4:21.65 | 113806 | 133445 7 | 29:39.21 | 4:11.03 | 133446 | 152273 8 | 33:50.24 | 3:16.61 | 152274 | 167034 9 | 37:07.10 | 3:29.39 | 167035 | 182748 10 | 40:36.49 | 5:53.27 | 182749 | 209250 11 | 46:30.01 | 4:34.45 | 209251 | 229845

Track 1

Filename C:\Documents and Settings\Administrator\Desktop\Tommy T - The Prester John Sessions (2009) FLAC\01 - Brothers.wav

Pre-gap length 0:00:02.00

Peak level 96.6 % Track quality 100.0 % Test CRC D9D16A62 Copy CRC D9D16A62 Track not present in AccurateRip database Copy OK

Track 2

Filename C:\Documents and Settings\Administrator\Desktop\Tommy T - The Prester John Sessions (2009) FLAC\02 - The Call.wav

Pre-gap length 0:00:01.00

Peak level 96.6 % Track quality 100.0 % Test CRC C9E5FC3C Copy CRC C9E5FC3C Track not present in AccurateRip database Copy OK

Track 3

Filename C:\Documents and Settings\Administrator\Desktop\Tommy T - The Prester John Sessions (2009) FLAC\03 - The Response.wav

Pre-gap length 0:00:01.00

Peak level 96.6 % Track quality 100.0 % Test CRC B68D5582 Copy CRC B68D5582 Track not present in AccurateRip database Copy OK

Track 4

Filename C:\Documents and Settings\Administrator\Desktop\Tommy T - The Prester John Sessions (2009) FLAC\04 - The Eighth Wonder.wav

Pre-gap length 0:00:01.00

Peak level 96.6 % Track quality 100.0 % Test CRC FCCFC017 Copy CRC FCCFC017 Track not present in AccurateRip database Copy OK

Track 5

Filename C:\Documents and Settings\Administrator\Desktop\Tommy T - The Prester John Sessions (2009) FLAC\05 - Oromo Dub (Cushtic Dub).wav

Pre-gap length 0:00:01.00

Peak level 96.6 % Track quality 100.0 % Test CRC EA3577E7 Copy CRC EA3577E7 Track not present in AccurateRip database Copy OK

Track 6

Filename C:\Documents and Settings\Administrator\Desktop\Tommy T - The Prester John Sessions (2009) FLAC\06 - East-West Express.wav

Pre-gap length 0:00:01.00

Peak level 96.6 % Track quality 100.0 % Test CRC 417597C9 Copy CRC 417597C9 Track not present in AccurateRip database Copy OK

Track 7

Filename C:\Documents and Settings\Administrator\Desktop\Tommy T - The Prester John Sessions (2009) FLAC\07 - Tribute To A King.wav

Pre-gap length 0:00:01.00

Peak level 96.6 % Track quality 99.9 % Test CRC 476572FF Copy CRC 476572FF Track not present in AccurateRip database Copy OK

Track 8

Filename C:\Documents and Settings\Administrator\Desktop\Tommy T - The Prester John Sessions (2009) FLAC\08 - Beyond Fasiladas.wav

Pre-gap length 0:00:01.00

Peak level 96.6 % Track quality 100.0 % Test CRC E403B1F6 Copy CRC E403B1F6 Track not present in AccurateRip database Copy OK

Track 9

Filename C:\Documents and Settings\Administrator\Desktop\Tommy T - The Prester John Sessions (2009) FLAC\09 - September Blues.wav

Pre-gap length 0:00:02.00

Peak level 96.6 % Track quality 99.9 % Test CRC 00B4D8E7 Copy CRC 00B4D8E7 Track not present in AccurateRip database Copy OK

Track 10

Filename C:\Documents and Settings\Administrator\Desktop\Tommy T - The Prester John Sessions (2009) FLAC\10 - Eden.wav

Pre-gap length 0:00:02.00

Peak level 96.6 % Track quality 100.0 % Test CRC 67318BD3 Copy CRC 67318BD3 Track not present in AccurateRip database Copy OK

Track 11

Filename C:\Documents and Settings\Administrator\Desktop\Tommy T - The Prester John Sessions (2009) FLAC\11 - Lifers.wav

Pre-gap length 0:00:03.00

Peak level 96.6 % Track quality 99.9 % Test CRC 5A42516F Copy CRC 5A42516F Track not present in AccurateRip database Copy OK

None of the tracks are present in the AccurateRip database

No errors occurred

End of status report
AUDIOCHECKER v2.0 beta (build 457) - by Dester - [email protected]
~~~~~~~~~~~~~~~~~~~~~~~~~~~~~~~~~~
-=== DO NOT EDIT THIS FILE! ===-

Path: ...\Tommy T - The Prester John Sessions (2009) FLAC

01 -=- 01 - Brothers.flac -=- CDDA (99%)
02 -=- 02 - The Call.flac -=- CDDA (100%)
03 -=- 03 - The Response.flac -=- CDDA (100%)
04 -=- 04 - The Eighth Wonder.flac -=- CDDA (100%)
05 -=- 05 - Oromo Dub (Cushtic Dub).flac -=- CDDA (100%)
06 -=- 06 - East-West Express.flac -=- CDDA (100%)
07 -=- 07 - Tribute To A King.flac -=- CDDA (100%)
08 -=- 08 - Beyond Fasiladas.flac -=- CDDA (100%)
09 -=- 09 - September Blues.flac -=- CDDA (100%)
10 -=- 10 - Eden.flac -=- CDDA (99%)
11 -=- 11 - Lifers.flac -=- CDDA (100%)

Summary 99,82% CDDA

242684788


Трекер:  [ 15-Фев-2011 13:03 ]

  

Скачать .torrent

Размер .torrent файла 15 KB


Размер: 346 MB
Хэш (hash) релиза: c2862aa031620a383482dbbc3ce3594d32b32807

Еще никто не оставлял запись к записи скачать торрент Tommy T . Будь первым!

!Обратная связь