Victor Mature | Is the Man Who Is Tall Happy? (2013) | Heard it as a Rumor

Скачать через торрент музыку Ali Campbell - Great British Songs - 2010, FLAC бесплатно без регистрации torrent

Статистика раздачи
Размер:  257 MB   |    Зарегистрирован:  7 лет 5 месяцев   |    .torrent скачан:  72 раза   |   
Раздают:  1  
   
загрузка...
 
Автор Сообщение

Fent

avatar Fent


Ali Campbell / Great British Songs


Жанр: Reggae
Страна-производитель диска: UK
Год издания диска: 2010
Издатель (лейбл): Absolute UK
Номер по каталогу: Absolute UK
Страна: UK
Аудио кодек: FLAC (*.flac)
Тип рипа: tracks+.cue+No Log+auCDtect
Битрейт аудио: lossless
Источник (релизер): из локальной сети
Наличие сканов в содержимом раздачи: ДА
Треклист:
1. Got To Get You Into My Life
2. Paint It Black
3. He Ain't Heavy He's My Brother
4. Love Is The Drug
5. Honky Tonk Woman
6. Carrie Anne
7. You Wear It Well
8. Squeeze Box
9. All Right Now
10. You Really Got Me
11. Hard Days Night
12. Baker Street
 
ЛОГА НЕТ, поэтому думаю надо поставить [color=red]СОМНИТЕЛЬНО[/color]
 
REM ACCURATERIPID 0012a39b-00ac5371-9a09960cREM COMMENT "CUETools generated dummy CUE sheet"PERFORMER "Ali Campbell"TITLE "Great British Songs 2010"FILE "01 - Got To Get You Into My Life.flac" WAVE TRACK 01 AUDIO TITLE "Got To Get You Into My Life" PERFORMER "Ali Campbell" INDEX 01 00:00:00FILE "02 - Paint It Black.flac" WAVE TRACK 02 AUDIO TITLE "Paint It Black" PERFORMER "Ali Campbell" INDEX 01 00:00:00FILE "03 - He Ain't Heavy, He's My Brother.flac" WAVE TRACK 03 AUDIO TITLE "He Ain't Heavy, He's My Brother" PERFORMER "Ali Campbell" INDEX 01 00:00:00FILE "04 - Love Is The Drug.flac" WAVE TRACK 04 AUDIO TITLE "Love Is The Drug" PERFORMER "Ali Campbell" INDEX 01 00:00:00FILE "05 - Honky Tonk Women.flac" WAVE TRACK 05 AUDIO TITLE "Honky Tonk Women" PERFORMER "Ali Campbell" INDEX 01 00:00:00FILE "06 - Carrie-Anne.flac" WAVE TRACK 06 AUDIO TITLE "Carrie-Anne" PERFORMER "Ali Campbell" INDEX 01 00:00:00FILE "07 - You Wear It Well.flac" WAVE TRACK 07 AUDIO TITLE "You Wear It Well" PERFORMER "Ali Campbell" INDEX 01 00:00:00FILE "08 - Squeeze box.flac" WAVE TRACK 08 AUDIO TITLE "Squeeze Box" PERFORMER "Ali Campbell" INDEX 01 00:00:00FILE "09 - All Right Now.flac" WAVE TRACK 09 AUDIO TITLE "All Right Now" PERFORMER "Ali Campbell" INDEX 01 00:00:00FILE "10 - You Really Got Me.flac" WAVE TRACK 10 AUDIO TITLE "You Really Got Me" PERFORMER "Ali Campbell" INDEX 01 00:00:00FILE "11 - A Hard Day's Night.flac" WAVE TRACK 11 AUDIO TITLE "A Hard Day's Night" PERFORMER "Ali Campbell" INDEX 01 00:00:00FILE "12 - Baker Street.flac" WAVE TRACK 12 AUDIO TITLE "Baker Street" PERFORMER "Ali Campbell" INDEX 01 00:00:00
 
[b]-----------------------

-----------------------

PERFORMER: auCDtect Task Manager, ver. 1.5.1RC3 build 1.5.1.4Copyright (c) 2008-2010 y-soft. All rights reservedhttp://y-soft.org

ANALYZER: auCDtect: CD records authenticity detector, version 0.8.2Copyright (c) 2004 Oleg Berngardt. All rights reserved.Copyright (c) 2004 Alexander Djourik. All rights reserved.

FILE: 12. Baker Street.flac Size: 24741279 Hash: 95FCC307936AC6AEB945C349422B4838 Accuracy: -m0 Conclusion: CDDA 99% Signature: F0488D9C1CCAB66851317892AD524B2DA50F6700FILE: 11. A Hard Day's Night.flac Size: 21979843 Hash: 9810035595E9A89FF690C5133415E480 Accuracy: -m0 Conclusion: CDDA 100% Signature: 32F98D8E559BF8D9CEB1102209392EABC081624EFILE: 10. You Really Got Me.flac Size: 16664631 Hash: 7D378B551B1B829269DE145E559EB1D6 Accuracy: -m0 Conclusion: CDDA 100% Signature: EE15E593E35928B1AA9B6EE6AFDD78F423F6AAB3FILE: 09. All Right Now.flac Size: 19166307 Hash: 89A9166D85322A870B310EC933CC7794 Accuracy: -m0 Conclusion: CDDA 100% Signature: 54A3A810F2639CD068A3B523BE753E6475D48A30FILE: 08. Squeeze box.flac Size: 22577943 Hash: 74DD38B7A73FF36ED956268920072BF7 Accuracy: -m0 Conclusion: CDDA 100% Signature: 72FD3E862F72E095DF6CD4EC59F86FFD12264CE5
</span>


Трекер:  [ 15-Фев-2011 13:01 ]

  

Скачать .torrent

Размер .torrent файла 11 KB


Размер: 257 MB
Хэш (hash) релиза: e68bf50d85a1e90a3ea9b93dda00306b7a1443e8

Еще никто не оставлял запись к записи скачать торрент Ali Campbell - Great British Songs - 2010, FLAC . Будь первым!

!Обратная связь