One Piece Chapter 898: | One Piece episode 826 VOSTFR | Subscribe

Скачать через торрент музыку Stick Figure - The Reprise Sessions - 2010, FLAC бесплатно без регистрации torrent

Статистика раздачи
Размер:  300 MB   |    Зарегистрирован:  7 лет 5 месяцев   |    .torrent скачан:  90 раз   |   
Раздают:  1  
   
загрузка...
 
Автор Сообщение

Fent

avatar Fent


Stick Figure - The Reprise Sessions

Жанр: Reggae / Roots Reggae
Страна: United States
Год издания диска: 2010
Издатель (лейбл): Stick Figure
Номер по каталогу: 884501370677
Страна-производитель диска: US
Аудио кодек: FLAC (*.flac)
Тип рипа: image+.cue+scans
Битрейт аудио: lossless
Продолжительность: 44:18
Источник (релизер): v3122 [AvaxHome]
Наличие сканов в содержимом раздачи: да (jpg, 300dpi)

Треклист:

01. Gone (03:32)
02. Your Way (02:56)
03. White Fire (04:09)
04. We Get High (03:30)
05. Long Lost Way (04:16)
06. Dead End Street (03:37)
07. Rising Riddim (00:59)
08. Let the Music Play (04:39)
09. Feelin' in the Mood (04:36)
10. Kingstep (02:40)
11. Youth (04:56)
12. Trouble Up There (acoustic) (04:22)
 
Exact Audio Copy V0.99 prebeta 5 from 4. May 2009

EAC extraction logfile from 22. October 2010, 17:25

Stick Figure / The Reprise Sessions

Used drive : ASUS DRW-2014L1T Adapter: 4 ID: 2

Read mode : SecureUtilize accurate stream : YesDefeat audio cache : YesMake use of C2 pointers : No

Read offset correction : 6Overread into Lead-In and Lead-Out : NoFill up missing offset samples with silence : YesDelete leading and trailing silent blocks : NoNull samples used in CRC calculations : YesUsed interface : Native Win32 interface for Win NT & 2000

Used output format : User Defined EncoderSelected bitrate : 768 kBit/sQuality : HighAdd ID3 tag : NoCommand line compressor : F:\Program Files\Exact Audio Copy\FLAC\FLAC.EXEAdditional command line options : -T "DATE=%y" -T "GENRE=%m" -8 -V %s

TOC of the extracted CD

Track | Start | Length | Start sector | End sector --------------------------------------------------------- 1 | 0:00.00 | 3:32.62 | 0 | 15961 2 | 3:32.62 | 2:56.35 | 15962 | 29196 3 | 6:29.22 | 4:09.36 | 29197 | 47907 4 | 10:38.58 | 3:30.19 | 47908 | 63676 5 | 14:09.02 | 4:16.04 | 63677 | 82880 6 | 18:25.06 | 3:37.64 | 82881 | 99219 7 | 22:02.70 | 0:59.43 | 99220 | 103687 8 | 23:02.38 | 4:39.72 | 103688 | 124684 9 | 27:42.35 | 4:36.53 | 124685 | 145437 10 | 32:19.13 | 2:40.11 | 145438 | 157448 11 | 34:59.24 | 4:56.37 | 157449 | 179685 12 | 39:55.61 | 4:22.53 | 179686 | 199388

Range status and errors

Selected range

Filename W:\EAC\Stick Figure - The Reprise Sessions\Stick Figure - The Reprise Sessions.wav

Peak level 93.9 % Range quality 99.9 % Test CRC BE0FE6F5 Copy CRC BE0FE6F5 Copy OK

No errors occurred

AccurateRip summary

Track 1 not present in databaseTrack 2 not present in databaseTrack 3 not present in databaseTrack 4 not present in databaseTrack 5 not present in databaseTrack 6 not present in databaseTrack 7 not present in databaseTrack 8 not present in databaseTrack 9 not present in databaseTrack 10 not present in databaseTrack 11 not present in databaseTrack 12 not present in database

None of the tracks are present in the AccurateRip database

End of status report
 
REM GENRE ReggaeREM DATE 2010REM DISCID 8A0A620CREM COMMENT "ExactAudioCopy v0.99pb5"PERFORMER "Stick Figure"TITLE "The Reprise Sessions"FILE "Stick Figure - The Reprise Sessions.flac" WAVE TRACK 01 AUDIO TITLE "Gone" PERFORMER "Stick Figure" FLAGS DCP INDEX 01 00:00:00 TRACK 02 AUDIO TITLE "Your Way" PERFORMER "Stick Figure" FLAGS DCP INDEX 00 03:31:51 INDEX 01 03:32:62 TRACK 03 AUDIO TITLE "White Fire" PERFORMER "Stick Figure" FLAGS DCP INDEX 00 06:28:66 INDEX 01 06:29:22 TRACK 04 AUDIO TITLE "We Get High" PERFORMER "Stick Figure" FLAGS DCP INDEX 00 10:37:28 INDEX 01 10:38:58 TRACK 05 AUDIO TITLE "Long Lost Way " PERFORMER "Stick Figure" FLAGS DCP INDEX 00 14:07:42 INDEX 01 14:09:02 TRACK 06 AUDIO TITLE "Dead End Street " PERFORMER "Stick Figure" FLAGS DCP INDEX 00 18:24:32 INDEX 01 18:25:06 TRACK 07 AUDIO TITLE "Rising Riddim" PERFORMER "Stick Figure" FLAGS DCP INDEX 00 22:01:42 INDEX 01 22:02:70 TRACK 08 AUDIO TITLE "Let the Music Play" PERFORMER "Stick Figure" FLAGS DCP INDEX 00 23:01:61 INDEX 01 23:02:38 TRACK 09 AUDIO TITLE "Feelin' in the Mood " PERFORMER "Stick Figure" FLAGS DCP INDEX 00 27:40:68 INDEX 01 27:42:35 TRACK 10 AUDIO TITLE "Kingstep" PERFORMER "Stick Figure" FLAGS DCP INDEX 00 32:17:00 INDEX 01 32:19:13 TRACK 11 AUDIO TITLE "Youth" PERFORMER "Stick Figure" FLAGS DCP INDEX 00 34:57:73 INDEX 01 34:59:24 TRACK 12 AUDIO TITLE "Trouble Up There (acoustic)" PERFORMER "Stick Figure" FLAGS DCP INDEX 00 39:54:50 INDEX 01 39:55:61
Possessing a unique style of music that combines a creative blend of upbeat roots reggae with the reverberating echoes of dub, comes a man with no limit for his musical abilities. Stick Figure’s music is written, recorded, and produced by Scott Woodruff, a young man from Duxbury, MA.

All of Stick Figure’s songs are made by recording each instrument separately, layering several tracks on top of one another in unison.

Stick Figure recently relocated to Southern California and has picked up three new members for the live band, Brendan Dane (San Diego) on bass, Todd Smith (San Clemente) on drums and Kevin Bong (San Diego) on keys. All are incredible musicians and are surely a great addition to the Stick Figure sound. The band is currently in the process of recording their first debt album together, expecting to drop this Winter.
Stick Figure has returned once again to bring you a fourth full length studio ablum, "The Reprise Sessions." The album marks the first official release of the new 4-piece band. Maintaining their roots, while expanding their musicianship, Stick Figure is proud to announce the release of 12 freshly polished signature tracks, blending roots reggae with heavy hard-hitting dub and bass rhythms. Written, recorded and self-produced, "The Reprise Sessions" includes several brand new tracks as well as some older material that has been revamped and reworked, producing a more cohesive, lively and high energetic sound than ever before.
http://www.cdbaby.com/cd/stickfig4
Scott Woodruff: All Instruments & Vocals (studio)
Bass - Brendan Dane
Drums - Todd Smith
Keys - Kevin Bong
Management and Booking:
[email protected]


Трекер:  [ 15-Фев-2011 13:00 ]

  

Скачать .torrent

Размер .torrent файла 12 KB


Размер: 300 MB
Хэш (hash) релиза: 0e83a613ba19570126620addb0cbccc39bc744b9

Еще никто не оставлял запись к записи скачать торрент Stick Figure - The Reprise Sessions - 2010, FLAC . Будь первым!

!Обратная связь