(2018) DVD Stolen princess: Ruslan an.. | Corel Painter 2019 | Street Food Fighter Ep.4

Скачать через торрент музыку Matisyahu - Youth Dub бесплатно без регистрации torrent

Статистика раздачи
Размер:  322 MB   |    Зарегистрирован:  7 лет 5 месяцев   |    .torrent скачан:  97 раз   |   
Раздают:  1  
   
загрузка...
 
Автор Сообщение

Fent

avatar Fent


Matisyahu - Youth Dub


Жанр: Reggae
Год выпуска диска: 2006
Производитель диска: USA
Аудио кодек: FLAC
Тип рипа: tracks+.cue
Битрейт аудио: lossless
Продолжительность: 50:10 min
Трэклист:
1 Youth Dub (5:06)
2 Fire & Dub (6:36)
3 Spark Seekers (5:01)
4 Dub Warrior (5:39)
5 WP Dub (5:10)
6 Daughters Dub (4:05)
7 One Woman (4:21)
8 Fire Of Heaven Dub (4:01)
9 Chop 'Em Down Dub (5:59)
10 Nigun (4:08)


Доп. информация:
Label: Epic
Catalog#: EK 80183
Format: CD
Country: US
Released: 2006
Genre: Reggae
Style: Dub
Credits: Remix - Bill Laswell
Notes: Promotional CD available as a bonus to those who pre-ordered Matisyahu's Youth album.
 
Exact Audio Copy V0.99 prebeta 4 from 23. January 2008

EAC extraction logfile from 23. February 2009, 21:13

Matisyahu / Youth Dub

Used drive : SONY DVD RW DRU-830A Adapter: 1 ID: 0

Read mode : SecureUtilize accurate stream : YesDefeat audio cache : YesMake use of C2 pointers : No

Read offset correction : 6Overread into Lead-In and Lead-Out : NoFill up missing offset samples with silence : YesDelete leading and trailing silent blocks : NoNull samples used in CRC calculations : YesUsed interface : Installed external ASPI interfaceGap handling : Appended to previous track

Used output format : User Defined EncoderSelected bitrate : 128 kBit/sQuality : HighAdd ID3 tag : NoCommand line compressor : C:\Program Files\FLAC\flac.exeAdditional command line options : -V -8 -T "artist=%a" -T "title=%t" -T "album=%g" -T "date=%y" -T "tracknumber=%n" -T "genre=%m" %s

TOC of the extracted CD

Track | Start | Length | Start sector | End sector --------------------------------------------------------- 1 | 0:00.00 | 5:06.04 | 0 | 22953 2 | 5:06.04 | 6:36.56 | 22954 | 52709 3 | 11:42.60 | 5:01.11 | 52710 | 75295 4 | 16:43.71 | 5:39.56 | 75296 | 100776 5 | 22:23.52 | 5:10.42 | 100777 | 124068 6 | 27:34.19 | 4:05.29 | 124069 | 142472 7 | 31:39.48 | 4:21.50 | 142473 | 162097 8 | 36:01.23 | 4:01.63 | 162098 | 180235 9 | 40:03.11 | 5:59.34 | 180236 | 207194 10 | 46:02.45 | 4:08.05 | 207195 | 225799

Track 1

Filename H:\Torrents\EAC Rips\Matisyahu - 2006 - Youth Dub\01 - Youth Dub.wav

Pre-gap length 0:00:02.00

Peak level 98.8 % Track quality 100.0 % Test CRC 57DC6EBB Copy CRC 57DC6EBB Accurately ripped (confidence 2) [5C67660E] Copy OK

Track 2

Filename H:\Torrents\EAC Rips\Matisyahu - 2006 - Youth Dub\02 - Fire & Dub.wav

Peak level 98.8 % Track quality 100.0 % Test CRC 98DA31EB Copy CRC 98DA31EB Accurately ripped (confidence 2) [5380D1A5] Copy OK

Track 3

Filename H:\Torrents\EAC Rips\Matisyahu - 2006 - Youth Dub\03 - Spark Seekers.wav

Peak level 98.8 % Track quality 99.9 % Test CRC 5C36B8E2 Copy CRC 5C36B8E2 Accurately ripped (confidence 2) [18337FAA] Copy OK

Track 4

Filename H:\Torrents\EAC Rips\Matisyahu - 2006 - Youth Dub\04 - Dub Warrior.wav

Peak level 98.8 % Track quality 100.0 % Test CRC CEC09AD5 Copy CRC CEC09AD5 Accurately ripped (confidence 2) [50CBE907] Copy OK

Track 5

Filename H:\Torrents\EAC Rips\Matisyahu - 2006 - Youth Dub\05 - WP Dub.wav

Peak level 98.8 % Track quality 100.0 % Test CRC 11019AC7 Copy CRC 11019AC7 Accurately ripped (confidence 2) [28AD0A08] Copy OK

Track 6

Filename H:\Torrents\EAC Rips\Matisyahu - 2006 - Youth Dub\06 - Daughters Dub.wav

Peak level 98.8 % Track quality 99.9 % Test CRC E6E3D1AE Copy CRC E6E3D1AE Accurately ripped (confidence 2) [1EBF4A97] Copy OK

Track 7

Filename H:\Torrents\EAC Rips\Matisyahu - 2006 - Youth Dub\07 - One Woman.wav

Peak level 98.9 % Track quality 99.9 % Test CRC 76F8DAD3 Copy CRC 76F8DAD3 Accurately ripped (confidence 2) [047506BA] Copy OK

Track 8

Filename H:\Torrents\EAC Rips\Matisyahu - 2006 - Youth Dub\08 - Fire Of Heaven Dub.wav

Peak level 98.8 % Track quality 100.0 % Test CRC 3E2A400E Copy CRC 3E2A400E Accurately ripped (confidence 2) [72C10A84] Copy OK

Track 9

Filename H:\Torrents\EAC Rips\Matisyahu - 2006 - Youth Dub\09 - Chop 'Em Down Dub.wav

Peak level 98.8 % Track quality 100.0 % Test CRC 30221BF4 Copy CRC 30221BF4 Accurately ripped (confidence 2) [27AC54DC] Copy OK

Track 10

Filename H:\Torrents\EAC Rips\Matisyahu - 2006 - Youth Dub\10 - Nigun.wav

Peak level 98.8 % Track quality 99.9 % Test CRC A82382A8 Copy CRC A82382A8 Accurately ripped (confidence 2) [A50CAE34] Copy OK

All tracks accurately ripped

No errors occurred

End of status report



Трекер:  [ 15-Фев-2011 12:58 ]

  

Скачать .torrent

Размер .torrent файла 14 KB


Размер: 322 MB
Хэш (hash) релиза: d81dac812885cde47b3fac04a21dfd6f62fd27ae

AqvaGen

Возможно неточный рип

Хотите добавить комментарий к записи скачать торрент Matisyahu - Youth Dub

!Обратная связь