Welshy Reviews Wes Craven’s New Nightmare (2011) | Toàn Cơ Từ – Chap 19.3 | Zambia Salvaje Odisea HDTV 720p AC3 5.1

Скачать через торрент музыку VA - Evolution Of Dub Volume 1-5 - 20CD - 2009-2010 бесплатно без регистрации torrent

Статистика раздачи
Размер:  3.25 GB   |    Зарегистрирован:  7 лет 5 месяцев   |    .torrent скачан:  92 раза   |   
Раздают:  1  
   
загрузка...
 
Автор Сообщение

Fent

avatar Fent


Various Artists - Evolution Of Dub Volume 1-5

Жанр: Dub
Страна-производитель диска: UK
Год издания диска: 2009-2010
Издатель (лейбл): Greensleeves Records
Аудио кодек: FLAC (*.flac)
Тип рипа: image+.cue
Битрейт аудио: lossless
Источник (релизер): фирменные диски
Наличие сканов в содержимом раздачи: нет
 
01 Satta Amassa Gana Version (3:09)02 More Dub Version (3:19)03 More Dub Version Two (3:01)04 Love Me Girl Version (2:31)05 Turn Back The Hands Of Time Version (2:43)06 Money In My Pocket Version (2:16)07 Rainy Night N Georgia Version (3:30)08 God Bless The Children Version (3:15)09 Love Ja Ja Children Version (1:54)10 Without Love Version (3:03)11 Be The One Version (3:38)12 He Prayed Version (2:56)
 
01 Dub From The Roots (4:16)02 Iyahta (3:46)03 Mine Field (2:42)04 Hijack The Barber (3:24)05 African Roots (3:56)06 Double Cross (3:51)07 East Of (Arrows Hi Fi) (2:15)08 Invasion (4:56)09 Dub Of A Woman (3:55)10 Dub On My Mind (2:29)11 Stealing (2:51)12 Dub Experience (3:08)13 Declaration Of Dub (3:40)14 A Truthful Dub (2:48)
 
01 Natty Dub (3:01)02 Dub Magnificent (4:14)03 A First Class Dub (3:01)04 The Stepping Dub (2:22)05 Rude Boy Dub (2:50)06 A Closer Dub (3:29)07 Roots Of Dub (3:19)08 Dub You Can Feel (3:35)09 Loving Dub (3:37)10 The Immortal Dub (3:26)11 Dread Locks Dub (2:29)12 Rocking Dub (2:21)
 
01 Rebel Dance (2:59)02 Casanova Dub (3:08)03 Silver Bullet (2:48)04 Rasta Locks (3:21)05 Dubbing With The Observer (2:39)06 Sir Nineys Rock (3:27)07 Jam Down (3:16)08 Parade Dub (3:22)09 Youth Man (2:33)10 Turntable Dub (3:28)11 Corn Man (3:12)12 Mister D. Brown Skank (2:51)13 Rema Dub (2:36)
 
01 A Dancing Dub (2:30)02 A Version I can Feel With love (3:54)03 A Loving Melody (3:28)04 The Mighty Gates Of Goza (3:07)05 Bongo Man Dub (3:21)06 True Believer In Dubs (2:48)07 The Duke Of Dubs (3:24)08 The Big Boss Boss Of Dubs (2:53)09 Behold Dis Ya Dub Of Class (3:19)10 Dace With Me (2:36)11 A Gigantic Dub (3:30)12 The Gorgan Of Dubs & Horns (2:49)
 
01 None Shall Escape Dub (3:31)02 Fatty Boom Boom Dub (2:29)03 Dread Locks Bald Head Dub (2:51)04 Two Face Rasta Dub (5:26)05 Tradition Dub (3:25)06 Take My Hand Dub (3:30)07 Hold On Dub (3:15)08 Ja Ja In De Dub (3:01)09 Ites Gold Green Dub (3:14)10 No Woman No Cry Dub (3:11)11 Small Axe Dub (3:27)12 If You Should Loose Me Dub (2:22)
 
01 The Conquerer (3:50)02 The Mighty Gorgon (4:08)03 Bionic Man (3:57)04 Seven Million Dollar Man (3:50)05 Big Foot (3:15)06 Ethiopians Rock (3:29)07 The Dark Destroyer (2:58)08 Special Brew (3:16)09 Super Larger (2:37)10 Russian Stout (3:42)11 Shub-Inn (3:13)
 
01 Dub Long Rastafari (3:26)02 Travelling Version (3:48)03 You're No Dub Baby (2:51)04 Burning Dub (3:39)05 Kingsgate Version (2:25)06 Dub Now (3:27)07 God Bless My Dub (3:37)08 Everyone's Dubbing (3:14)09 Rich And Poor Dub (3:05)10 Tribulation Version (3:11)
 
01 Rock Me In Dub (3:28)02 Channel One In Dub (3:45)03 Thompson In Dub (3:37)04 Negrea Love Dub (2:52)05 Jah Jah Children Dub (3:33)06 Lion Dub (3:04)07 Natty Dread Dub (3:08)08 Roots Dub (3:24)09 Jamaica Colley Dub (3:07)10 Africa Love Dub (3:22)
 
01 Mafia Dub (2:51)02 Jungo In Dub (2:54)03 Survival Dub (2:49)04 Nagusa Dub (3:36)05 Skillful Dub (2:51)06 Creation Dub (3:44)07 Green Bay Dub (3:33)08 Hop Scotch Dub (2:39)09 Jerusalem Dub (3:33)10 Back A Wall Dub (3:13)
 
01 79 Rock (3:21)02 Danger Rockers (3:29)03 African Free Up (3:35)04 Wicked Dub (2:47)05 Dub I Dub (2:46)06 Roots Man Dub (2:21)07 Fisherman Style (2:46)08 Freedom Dub (2:20)09 Shockin' Rock (2:50)10 Thompson Sound Incorporated (3:35)
 
01 Calico Jack (4:02)02 Big Foot (3:12)03 Goldmine (2:51)04 Bitter Blood (3:09)05 Red River Dub (3:07)06 Musketeer Dub (3:02)07 Jamintel (3:41)08 Heartburn (3:10)09 Sore Mouth (2:57)10 Pepper Dub (3:41)
 
01 Bounty Hunter (2:31)02 Rawhide Kid (2:49)03 Tribute To Donald Quarrie (2:53)04 High Moon (2:51)05 The Great Escape (3:02)06 Walls Of Jericho (2:50)07 Wicked And Dreadful (2:30)08 Revenge (3:02)09 I Shot The President (3:24)10 State Of Emergency (3:05)
 
01 Ten Commandments (3:15)02 Majestic Dub (2:59)03 Social Justice (3:43)04 Kings Of Dub (2:43)05 Edward The Eight (3:17)06 International Treaty (2:56)07 Martial Law (2:54)08 Nations Of Dub (3:06)09 Embargo (3:49)
 
01 The Day After (4:35)02 Long Distance Affair (3:39)03 Full Moon Ikky (4:41)04 Ladies Night Out (4:01)05 Chapter Five (4:05)06 Bad Verdict (4:07)07 Military Intervention (4:46)08 Campus Flash Back (2:28)
 
01 Syncopation (3:59)02 Free Ticket To Ride (4:14)03 Earthscan (3:17)04 Flirting In Space (3:52)05 Space Invaders (3:19)06 Nighthawk (3:57)07 Laser Eyes (3:28)08 Flight To Nowhere (3:19)
 
01 Cell Block Dub (3:10)02 Dub My Whole World Down (4:13)03 Fancy Dub Up (3:38)04 Dubbing Storm (3:40)05 Ten To One Dub (2:21)06 Dress Back Dub (2:35)07 Dubbing West (3:39)08 Swinging My Dub (3:17)09 Unknown Dub (2:30)
 
01 Earthquake Dub (2:40)02 Rasta Foundation (2:47)03 Fletchers Land (3:31)04 Ital Menu (3:26)05 Secret Agent (3:32)06 Heavy Rock (3:38)07 An Event (3:25)08 Black Diamond Rock (3:30)09 Collie In Dub (2:31)10 Pain Land Dub (2:12)
 
01 King Of The Dubb Rock (2:28)02 Capital Radio Rock (3:50)03 Live And Love (3:25)04 Born To Love (2:56)05 Mouth Of The Wicked (3:30)06 Piccadilly Circus Dubb (2:02)07 Tribute To Mohammed Ali (4:01)08 Many Moods Of Coxsone (4:06)09 It's Reggae Time Dubb Rock (2:55)10 Sounds Of Safari (4:16)
 
01 Black Wars Reggae (6:08)02 Zion Bound (4:08)03 Travelling Israel Dub (3:05)04 East Of The Rockfort Rock (3:23)05 Psalms 87.2 (4:33)06 Bower Dub (4:03)07 So Much Dub To Give (4:46)08 United Africa (3:52)09 Reggae Fusion (3:38)10 Poor Man's Story (5:12)
 
Exact Audio Copy V0.99 prebeta 5 from 4. May 2009

EAC extraction logfile from 18. November 2010, 20:55

Joe Gibbs / Dub Serial (Evolution Of Dub Vol.1 CD1)

Used drive : PIONEER DVD-RW DVR-111 Adapter: 2 ID: 0

Read mode : SecureUtilize accurate stream : YesDefeat audio cache : YesMake use of C2 pointers : No

Read offset correction : 48Overread into Lead-In and Lead-Out : NoFill up missing offset samples with silence : YesDelete leading and trailing silent blocks : NoNull samples used in CRC calculations : YesUsed interface : Installed external ASPI interface

Used output format : User Defined EncoderSelected bitrate : 1024 kBit/sQuality : HighAdd ID3 tag : NoCommand line compressor : C:\Program Files\Exact Audio Copy\FLAC\FLAC.EXEAdditional command line options : -8 -V -T "ARTIST=%a" -T "ALBUM=%g" -T "DATE=%y" -T "GENRE=%m" %s -o %d

TOC of the extracted CD

Track | Start | Length | Start sector | End sector --------------------------------------------------------- 1 | 0:00.00 | 3:08.50 | 0 | 14149 2 | 3:08.50 | 3:19.05 | 14150 | 29079 3 | 6:27.55 | 3:00.38 | 29080 | 42617 4 | 9:28.18 | 2:31.00 | 42618 | 53942 5 | 11:59.18 | 2:43.32 | 53943 | 66199 6 | 14:42.50 | 2:16.15 | 66200 | 76414 7 | 16:58.65 | 3:29.40 | 76415 | 92129 8 | 20:28.30 | 3:14.43 | 92130 | 106722 9 | 23:42.73 | 1:54.10 | 106723 | 115282 10 | 25:37.08 | 3:02.67 | 115283 | 128999 11 | 28:40.00 | 3:38.30 | 129000 | 145379 12 | 32:18.30 | 2:55.65 | 145380 | 158569

Range status and errors

Selected range

Filename J:\temp\nnm\VOL1CD1 Joe Gibbs - Dub Serial.wav

Peak level 98.0 % Range quality 99.9 % Test CRC CE753E11 Copy CRC CE753E11 Copy OK

No errors occurred

AccurateRip summary

Track 1 accurately ripped (confidence 1) [33B92A6B]Track 2 accurately ripped (confidence 1) [7D5B218A]Track 3 accurately ripped (confidence 1) [6E7DC50B]Track 4 accurately ripped (confidence 1) [E0615E68]Track 5 accurately ripped (confidence 1) [7B0BF425]Track 6 accurately ripped (confidence 1) [4755BB99]Track 7 accurately ripped (confidence 1) [63AE66E0]Track 8 accurately ripped (confidence 1) [5A62B14C]Track 9 accurately ripped (confidence 1) [7F242A61]Track 10 accurately ripped (confidence 1) [46B43FD7]Track 11 accurately ripped (confidence 1) [67E26D79]Track 12 accurately ripped (confidence 1) [B5E1BC6A]

All tracks accurately ripped

End of status report
 
Exact Audio Copy V0.99 prebeta 5 from 4. May 2009

EAC extraction logfile from 18. November 2010, 21:14

King Tubby / Dub From The Roots (Evolution Of Dub Vol.1 CD2)

Used drive : PIONEER DVD-RW DVR-111 Adapter: 2 ID: 0

Read mode : SecureUtilize accurate stream : YesDefeat audio cache : YesMake use of C2 pointers : No

Read offset correction : 48Overread into Lead-In and Lead-Out : NoFill up missing offset samples with silence : YesDelete leading and trailing silent blocks : NoNull samples used in CRC calculations : YesUsed interface : Installed external ASPI interface

Used output format : User Defined EncoderSelected bitrate : 1024 kBit/sQuality : HighAdd ID3 tag : NoCommand line compressor : C:\Program Files\Exact Audio Copy\FLAC\FLAC.EXEAdditional command line options : -8 -V -T "ARTIST=%a" -T "ALBUM=%g" -T "DATE=%y" -T "GENRE=%m" %s -o %d

TOC of the extracted CD

Track | Start | Length | Start sector | End sector --------------------------------------------------------- 1 | 0:00.00 | 4:16.27 | 0 | 19226 2 | 4:16.27 | 3:46.15 | 19227 | 36191 3 | 8:02.42 | 2:42.15 | 36192 | 48356 4 | 10:44.57 | 3:23.68 | 48357 | 63649 5 | 14:08.50 | 3:55.40 | 63650 | 81314 6 | 18:04.15 | 3:51.00 | 81315 | 98639 7 | 21:55.15 | 2:14.65 | 98640 | 108754 8 | 24:10.05 | 4:55.57 | 108755 | 130936 9 | 29:05.62 | 3:55.25 | 130937 | 148586 10 | 33:01.12 | 2:29.28 | 148587 | 159789 11 | 35:30.40 | 2:51.22 | 159790 | 172636 12 | 38:21.62 | 3:07.73 | 172637 | 186734 13 | 41:29.60 | 3:40.10 | 186735 | 203244 14 | 45:09.70 | 2:47.52 | 203245 | 215821

Range status and errors

Selected range

Filename J:\temp\nnm\VOL1CD2 King Tubby - Dub From The Roots.wav

Peak level 100.0 % Range quality 100.0 % Test CRC EE7CE28B Copy CRC EE7CE28B Copy OK

No errors occurred

AccurateRip summary

Track 1 accurately ripped (confidence 1) [84B6A0B6]Track 2 accurately ripped (confidence 1) [3038F537]Track 3 accurately ripped (confidence 1) [AAD0452A]Track 4 accurately ripped (confidence 1) [75EC746F]Track 5 accurately ripped (confidence 1) [D25C9E62]Track 6 accurately ripped (confidence 1) [2961A3B4]Track 7 accurately ripped (confidence 1) [BC6E3B87]Track 8 accurately ripped (confidence 1) [1A407F3A]Track 9 accurately ripped (confidence 1) [8C48461C]Track 10 accurately ripped (confidence 1) [7BF40FCD]Track 11 accurately ripped (confidence 1) [8D09FC26]Track 12 accurately ripped (confidence 1) [75A2FEA7]Track 13 accurately ripped (confidence 1) [47DD84CF]Track 14 accurately ripped (confidence 1) [69201DF8]

All tracks accurately ripped

End of status report
 
Exact Audio Copy V0.99 prebeta 5 from 4. May 2009

EAC extraction logfile from 18. November 2010, 22:09

King Tubby / The Roots Of Dub (Evolution Of Dub Vol.1 CD3)

Used drive : PIONEER DVD-RW DVR-111 Adapter: 2 ID: 0

Read mode : SecureUtilize accurate stream : YesDefeat audio cache : YesMake use of C2 pointers : No

Read offset correction : 48Overread into Lead-In and Lead-Out : NoFill up missing offset samples with silence : YesDelete leading and trailing silent blocks : NoNull samples used in CRC calculations : YesUsed interface : Installed external ASPI interface

Used output format : User Defined EncoderSelected bitrate : 1024 kBit/sQuality : HighAdd ID3 tag : NoCommand line compressor : C:\Program Files\Exact Audio Copy\FLAC\FLAC.EXEAdditional command line options : -8 -V -T "ARTIST=%a" -T "ALBUM=%g" -T "DATE=%y" -T "GENRE=%m" %s -o %d

TOC of the extracted CD

Track | Start | Length | Start sector | End sector --------------------------------------------------------- 1 | 0:00.00 | 3:01.30 | 0 | 13604 2 | 3:01.30 | 4:14.15 | 13605 | 32669 3 | 7:15.45 | 3:01.17 | 32670 | 46261 4 | 10:16.62 | 2:21.68 | 46262 | 56904 5 | 12:38.55 | 2:49.60 | 56905 | 69639 6 | 15:28.40 | 3:28.50 | 69640 | 85289 7 | 18:57.15 | 3:18.70 | 85290 | 100209 8 | 22:16.10 | 3:34.72 | 100210 | 116331 9 | 25:51.07 | 3:37.15 | 116332 | 132621 10 | 29:28.22 | 3:25.58 | 132622 | 148054 11 | 32:54.05 | 2:29.17 | 148055 | 159246 12 | 35:23.22 | 2:21.15 | 159247 | 169836

Range status and errors

Selected range

Filename J:\temp\nnm\VOL1CD3 King Tubby - The Roots Of Dub.wav

Peak level 100.0 % Range quality 100.0 % Test CRC FAB4B953 Copy CRC FAB4B953 Copy OK

No errors occurred

AccurateRip summary

Track 1 accurately ripped (confidence 1) [6C4EC751]Track 2 accurately ripped (confidence 1) [A11A4941]Track 3 accurately ripped (confidence 1) [F7CD2560]Track 4 accurately ripped (confidence 1) [6BB53DD1]Track 5 accurately ripped (confidence 1) [4C9FE3EF]Track 6 accurately ripped (confidence 1) [9DF5721D]Track 7 accurately ripped (confidence 1) [70E2EF5B]Track 8 accurately ripped (confidence 1) [B73D90AF]Track 9 accurately ripped (confidence 1) [98B0D2E0]Track 10 accurately ripped (confidence 1) [234A7521]Track 11 accurately ripped (confidence 1) [48F43303]Track 12 accurately ripped (confidence 1) [2635E3DD]

All tracks accurately ripped

End of status report
 
Exact Audio Copy V0.99 prebeta 5 from 4. May 2009

EAC extraction logfile from 18. November 2010, 22:26

Observer All Stars & King Tubby / Dubbing With The Observer (Evolution Of Dub Vol.1 CD4)

Used drive : PIONEER DVD-RW DVR-111 Adapter: 2 ID: 0

Read mode : SecureUtilize accurate stream : YesDefeat audio cache : YesMake use of C2 pointers : No

Read offset correction : 48Overread into Lead-In and Lead-Out : NoFill up missing offset samples with silence : YesDelete leading and trailing silent blocks : NoNull samples used in CRC calculations : YesUsed interface : Installed external ASPI interface

Used output format : User Defined EncoderSelected bitrate : 1024 kBit/sQuality : HighAdd ID3 tag : NoCommand line compressor : C:\Program Files\Exact Audio Copy\FLAC\FLAC.EXEAdditional command line options : -8 -V -T "ARTIST=%a" -T "ALBUM=%g" -T "DATE=%y" -T "GENRE=%m" %s -o %d

TOC of the extracted CD

Track | Start | Length | Start sector | End sector --------------------------------------------------------- 1 | 0:00.00 | 2:59.05 | 0 | 13429 2 | 2:59.05 | 3:08.25 | 13430 | 27554 3 | 6:07.30 | 2:47.40 | 27555 | 40119 4 | 8:54.70 | 3:20.50 | 40120 | 55169 5 | 12:15.45 | 2:38.40 | 55170 | 67059 6 | 14:54.10 | 3:27.35 | 67060 | 82619 7 | 18:21.45 | 3:16.30 | 82620 | 97349 8 | 21:38.00 | 3:21.58 | 97350 | 112482 9 | 24:59.58 | 2:32.60 | 112483 | 123942 10 | 27:32.43 | 3:27.50 | 123943 | 139517 11 | 31:00.18 | 3:12.02 | 139518 | 153919 12 | 34:12.20 | 2:50.45 | 153920 | 166714 13 | 37:02.65 | 2:35.65 | 166715 | 178404

Range status and errors

Selected range

Filename J:\temp\nnm\VOL1CD4 Observer All Stars & King Tubby - Dubbing With The Observer.wav

Peak level 88.3 % Range quality 100.0 % Test CRC 7083FC7B Copy CRC 7083FC7B Copy OK

No errors occurred

AccurateRip summary

Track 1 accurately ripped (confidence 1) [D05CA888]Track 2 accurately ripped (confidence 1) [6D53DF9E]Track 3 accurately ripped (confidence 1) [D5DCCB53]Track 4 accurately ripped (confidence 1) [AD1E9A6B]Track 5 accurately ripped (confidence 1) [07AE4930]Track 6 accurately ripped (confidence 1) [15CBDE45]Track 7 accurately ripped (confidence 1) [C27D7FA3]Track 8 accurately ripped (confidence 1) [5EB9CFC0]Track 9 accurately ripped (confidence 1) [7D766278]Track 10 accurately ripped (confidence 1) [40E689B4]Track 11 accurately ripped (confidence 1) [C2C9C6E5]Track 12 accurately ripped (confidence 1) [B5CEF016]Track 13 accurately ripped (confidence 1) [F562E03A]

All tracks accurately ripped

End of status report
 
Exact Audio Copy V0.99 prebeta 5 from 4. May 2009

EAC extraction logfile from 20. November 2010, 13:25

Tommy McCook & The Aggrovators / Brass Rockers (Evolution Of Dub Vol. 2)

Used drive : PIONEER DVD-RW DVR-111 Adapter: 2 ID: 0

Read mode : SecureUtilize accurate stream : YesDefeat audio cache : YesMake use of C2 pointers : No

Read offset correction : 48Overread into Lead-In and Lead-Out : NoFill up missing offset samples with silence : YesDelete leading and trailing silent blocks : NoNull samples used in CRC calculations : YesUsed interface : Installed external ASPI interface

Used output format : User Defined EncoderSelected bitrate : 1024 kBit/sQuality : HighAdd ID3 tag : NoCommand line compressor : C:\Program Files\Exact Audio Copy\FLAC\FLAC.EXEAdditional command line options : -8 -V -T "ARTIST=%a" -T "ALBUM=%g" -T "DATE=%y" -T "GENRE=%m" %s -o %d

TOC of the extracted CD

Track | Start | Length | Start sector | End sector --------------------------------------------------------- 1 | 0:00.00 | 2:30.07 | 0 | 11256 2 | 2:30.07 | 3:54.00 | 11257 | 28806 3 | 6:24.07 | 3:28.00 | 28807 | 44406 4 | 9:52.07 | 3:07.18 | 44407 | 58449 5 | 12:59.25 | 3:21.10 | 58450 | 73534 6 | 16:20.35 | 2:48.10 | 73535 | 86144 7 | 19:08.45 | 3:23.57 | 86145 | 101426 8 | 22:32.27 | 2:52.73 | 101427 | 114399 9 | 25:25.25 | 3:19.37 | 114400 | 129361 10 | 28:44.62 | 2:35.40 | 129362 | 141026 11 | 31:20.27 | 3:30.13 | 141027 | 156789 12 | 34:50.40 | 2:49.22 | 156790 | 169486

Range status and errors

Selected range

Filename J:\temp\nnm\VOL2CD1 Tommy McCook & The Aggrovators - Brass Rockers.wav

Peak level 98.0 % Range quality 100.0 % Test CRC B7CAF1DE Copy CRC B7CAF1DE Copy OK

No errors occurred

AccurateRip summary

Track 1 accurately ripped (confidence 2) [2EB5365E]Track 2 accurately ripped (confidence 2) [21E3F69E]Track 3 accurately ripped (confidence 2) [0A5E7694]Track 4 accurately ripped (confidence 2) [7F387F42]Track 5 accurately ripped (confidence 2) [7B0653A8]Track 6 accurately ripped (confidence 2) [7C80C089]Track 7 accurately ripped (confidence 2) [9477C3DB]Track 8 accurately ripped (confidence 2) [C191EAD1]Track 9 accurately ripped (confidence 2) [6FBC25AE]Track 10 accurately ripped (confidence 2) [89956972]Track 11 accurately ripped (confidence 2) [77BB44F0]Track 12 accurately ripped (confidence 2) [2316D20C]

All tracks accurately ripped

End of status report
 
Exact Audio Copy V0.99 prebeta 5 from 4. May 2009

EAC extraction logfile from 20. November 2010, 13:50

The Aggrovators / Rasta Dub '76 (Evolution Of Dub Vol. 2)

Used drive : PIONEER DVD-RW DVR-111 Adapter: 2 ID: 0

Read mode : SecureUtilize accurate stream : YesDefeat audio cache : YesMake use of C2 pointers : No

Read offset correction : 48Overread into Lead-In and Lead-Out : NoFill up missing offset samples with silence : YesDelete leading and trailing silent blocks : NoNull samples used in CRC calculations : YesUsed interface : Installed external ASPI interface

Used output format : User Defined EncoderSelected bitrate : 1024 kBit/sQuality : HighAdd ID3 tag : NoCommand line compressor : C:\Program Files\Exact Audio Copy\FLAC\FLAC.EXEAdditional command line options : -8 -V -T "ARTIST=%a" -T "ALBUM=%g" -T "DATE=%y" -T "GENRE=%m" %s -o %d

TOC of the extracted CD

Track | Start | Length | Start sector | End sector --------------------------------------------------------- 1 | 0:00.00 | 3:30.58 | 0 | 15807 2 | 3:30.58 | 2:28.70 | 15808 | 26977 3 | 5:59.53 | 2:50.42 | 26978 | 39769 4 | 8:50.20 | 5:25.53 | 39770 | 64197 5 | 14:15.73 | 3:24.57 | 64198 | 79554 6 | 17:40.55 | 3:30.04 | 79555 | 95308 7 | 21:10.59 | 3:15.09 | 95309 | 109942 8 | 24:25.68 | 3:01.33 | 109943 | 123550 9 | 27:27.26 | 3:13.52 | 123551 | 138077 10 | 30:41.03 | 3:10.74 | 138078 | 152401 11 | 33:52.02 | 3:26.73 | 152402 | 167924 12 | 37:19.00 | 2:21.67 | 167925 | 178566

Range status and errors

Selected range

Filename J:\temp\nnm\VOL2CD2 The Aggrovators - Rasta Dub 76.wav

Peak level 100.0 % Range quality 99.9 % Test CRC 5CB29FC1 Copy CRC 5CB29FC1 Copy OK

No errors occurred

AccurateRip summary

Track 1 accurately ripped (confidence 2) [C26C2164]Track 2 accurately ripped (confidence 2) [D5FA5334]Track 3 accurately ripped (confidence 2) [62EC129B]Track 4 accurately ripped (confidence 2) [C6A71F67]Track 5 accurately ripped (confidence 2) [C0ADC049]Track 6 accurately ripped (confidence 2) [854DD7A2]Track 7 accurately ripped (confidence 2) [4033D35E]Track 8 accurately ripped (confidence 2) [5A53938D]Track 9 accurately ripped (confidence 2) [13A1AF47]Track 10 accurately ripped (confidence 2) [85D758BE]Track 11 accurately ripped (confidence 2) [A819AE86]Track 12 accurately ripped (confidence 2) [C5210580]

All tracks accurately ripped

End of status report
 
Exact Audio Copy V0.99 prebeta 5 from 4. May 2009

EAC extraction logfile from 20. November 2010, 14:13

Agrovators Meets The Revolutioners / At Channel One Studios (Evolution Of Dub Vol. 2)

Used drive : PIONEER DVD-RW DVR-111 Adapter: 2 ID: 0

Read mode : SecureUtilize accurate stream : YesDefeat audio cache : YesMake use of C2 pointers : No

Read offset correction : 48Overread into Lead-In and Lead-Out : NoFill up missing offset samples with silence : YesDelete leading and trailing silent blocks : NoNull samples used in CRC calculations : YesUsed interface : Installed external ASPI interface

Used output format : User Defined EncoderSelected bitrate : 1024 kBit/sQuality : HighAdd ID3 tag : NoCommand line compressor : C:\Program Files\Exact Audio Copy\FLAC\FLAC.EXEAdditional command line options : -8 -V -T "ARTIST=%a" -T "ALBUM=%g" -T "DATE=%y" -T "GENRE=%m" %s -o %d

TOC of the extracted CD

Track | Start | Length | Start sector | End sector --------------------------------------------------------- 1 | 0:00.00 | 3:50.31 | 0 | 17280 2 | 3:50.31 | 4:07.66 | 17281 | 35871 3 | 7:58.22 | 3:56.40 | 35872 | 53611 4 | 11:54.62 | 3:49.42 | 53612 | 70828 5 | 15:44.29 | 3:14.72 | 70829 | 85450 6 | 18:59.26 | 3:28.62 | 85451 | 101112 7 | 22:28.13 | 2:57.55 | 101113 | 114442 8 | 25:25.68 | 3:16.35 | 114443 | 129177 9 | 28:42.28 | 2:37.32 | 129178 | 140984 10 | 31:19.60 | 3:41.50 | 140985 | 157609 11 | 35:01.35 | 3:13.05 | 157610 | 172089

Range status and errors

Selected range

Filename J:\temp\nnm\VOL2CD3 Agrovators Meets The Revolutioners At Channel One Studios.wav

Peak level 97.3 % Range quality 100.0 % Test CRC BC8ABBC5 Copy CRC BC8ABBC5 Copy OK

No errors occurred

AccurateRip summary

Track 1 accurately ripped (confidence 2) [2DFB64C3]Track 2 accurately ripped (confidence 2) [611B1E1A]Track 3 accurately ripped (confidence 2) [4AD9E05A]Track 4 accurately ripped (confidence 2) [C30E86CB]Track 5 accurately ripped (confidence 2) [C0D07924]Track 6 accurately ripped (confidence 2) [3FB843F7]Track 7 accurately ripped (confidence 2) [E43BA73C]Track 8 accurately ripped (confidence 2) [77811431]Track 9 accurately ripped (confidence 2) [47E867F9]Track 10 accurately ripped (confidence 2) [28E42CBF]Track 11 accurately ripped (confidence 2) [B5943392]

All tracks accurately ripped

End of status report
 
Exact Audio Copy V0.99 prebeta 5 from 4. May 2009

EAC extraction logfile from 20. November 2010, 14:29

Niney The Observer / Sledgehammer Dub Observer Style (Evolution Of Dub Vol.2 CD4)

Used drive : PIONEER DVD-RW DVR-111 Adapter: 2 ID: 0

Read mode : SecureUtilize accurate stream : YesDefeat audio cache : YesMake use of C2 pointers : No

Read offset correction : 48Overread into Lead-In and Lead-Out : NoFill up missing offset samples with silence : YesDelete leading and trailing silent blocks : NoNull samples used in CRC calculations : YesUsed interface : Installed external ASPI interface

Used output format : User Defined EncoderSelected bitrate : 1024 kBit/sQuality : HighAdd ID3 tag : NoCommand line compressor : C:\Program Files\Exact Audio Copy\FLAC\FLAC.EXEAdditional command line options : -8 -V -T "ARTIST=%a" -T "ALBUM=%g" -T "DATE=%y" -T "GENRE=%m" %s -o %d

TOC of the extracted CD

Track | Start | Length | Start sector | End sector --------------------------------------------------------- 1 | 0:00.00 | 3:26.20 | 0 | 15469 2 | 3:26.20 | 3:48.13 | 15470 | 32582 3 | 7:14.33 | 2:51.15 | 32583 | 45422 4 | 10:05.48 | 3:38.70 | 45423 | 61842 5 | 13:44.43 | 2:25.24 | 61843 | 72741 6 | 16:09.67 | 3:27.21 | 72742 | 88287 7 | 19:37.13 | 3:36.38 | 88288 | 104525 8 | 23:13.51 | 3:13.68 | 104526 | 119068 9 | 26:27.44 | 3:05.22 | 119069 | 132965 10 | 29:32.66 | 3:10.45 | 132966 | 147260

Range status and errors

Selected range

Filename J:\temp\nnm\VOL2CD4 Niney The Observer - Sledgehammer Dub.wav

Peak level 97.7 % Range quality 99.9 % Test CRC 09988520 Copy CRC 09988520 Copy OK

No errors occurred

AccurateRip summary

Track 1 accurately ripped (confidence 2) [FAE81B2A]Track 2 accurately ripped (confidence 2) [FD201115]Track 3 accurately ripped (confidence 2) [2376077A]Track 4 accurately ripped (confidence 2) [7FF82C65]Track 5 accurately ripped (confidence 2) [8E3619D0]Track 6 accurately ripped (confidence 2) [14D53D2E]Track 7 accurately ripped (confidence 2) [C5E6AFBE]Track 8 accurately ripped (confidence 2) [21CDFE18]Track 9 accurately ripped (confidence 2) [CEE1B8BB]Track 10 accurately ripped (confidence 2) [45BFAFFA]

All tracks accurately ripped

End of status report
 
Exact Audio Copy V0.99 prebeta 5 from 4. May 2009

EAC extraction logfile from 20. November 2010, 15:06

The Revolutionaries / Negrea Love Dub (Evolution Of Dub Vol.3 CD1)

Used drive : PIONEER DVD-RW DVR-111 Adapter: 2 ID: 0

Read mode : SecureUtilize accurate stream : YesDefeat audio cache : YesMake use of C2 pointers : No

Read offset correction : 48Overread into Lead-In and Lead-Out : NoFill up missing offset samples with silence : YesDelete leading and trailing silent blocks : NoNull samples used in CRC calculations : YesUsed interface : Installed external ASPI interface

Used output format : User Defined EncoderSelected bitrate : 1024 kBit/sQuality : HighAdd ID3 tag : NoCommand line compressor : C:\Program Files\Exact Audio Copy\FLAC\FLAC.EXEAdditional command line options : -8 -V -T "ARTIST=%a" -T "ALBUM=%g" -T "DATE=%y" -T "GENRE=%m" %s -o %d

TOC of the extracted CD

Track | Start | Length | Start sector | End sector --------------------------------------------------------- 1 | 0:00.00 | 3:27.45 | 0 | 15569 2 | 3:27.45 | 3:45.37 | 15570 | 32481 3 | 7:13.07 | 3:37.13 | 32482 | 48769 4 | 10:50.20 | 2:51.72 | 48770 | 61666 5 | 13:42.17 | 3:33.35 | 61667 | 77676 6 | 17:15.52 | 3:03.65 | 77677 | 91466 7 | 20:19.42 | 3:08.04 | 91467 | 105570 8 | 23:27.46 | 3:23.70 | 105571 | 120865 9 | 26:51.41 | 3:07.29 | 120866 | 134919 10 | 29:58.70 | 3:21.64 | 134920 | 150058

Range status and errors

Selected range

Filename J:\temp\nnm\VOL3CD1 The Revolutionaries - Negrea Love Dub.wav

Peak level 90.4 % Range quality 100.0 % Test CRC 3677D422 Copy CRC 3677D422 Copy OK

No errors occurred

AccurateRip summary

Track 1 accurately ripped (confidence 2) [AC2BD0A2]Track 2 accurately ripped (confidence 2) [7D4F3EEA]Track 3 accurately ripped (confidence 2) [936068E1]Track 4 accurately ripped (confidence 2) [D58DEB7E]Track 5 accurately ripped (confidence 2) [BDDBF828]Track 6 accurately ripped (confidence 2) [4EDBEFB3]Track 7 accurately ripped (confidence 2) [D2DBC251]Track 8 accurately ripped (confidence 2) [CC6D40B2]Track 9 accurately ripped (confidence 2) [E923F422]Track 10 accurately ripped (confidence 2) [DC75586E]

All tracks accurately ripped

End of status report
 
Exact Audio Copy V0.99 prebeta 5 from 4. May 2009

EAC extraction logfile from 20. November 2010, 15:20

The Revolutionaries / Green Bay Dub (Evolution Of Dub Vol.3 CD2)

Used drive : PIONEER DVD-RW DVR-111 Adapter: 2 ID: 0

Read mode : SecureUtilize accurate stream : YesDefeat audio cache : YesMake use of C2 pointers : No

Read offset correction : 48Overread into Lead-In and Lead-Out : NoFill up missing offset samples with silence : YesDelete leading and trailing silent blocks : NoNull samples used in CRC calculations : YesUsed interface : Installed external ASPI interface

Used output format : User Defined EncoderSelected bitrate : 1024 kBit/sQuality : HighAdd ID3 tag : NoCommand line compressor : C:\Program Files\Exact Audio Copy\FLAC\FLAC.EXEAdditional command line options : -8 -V -T "ARTIST=%a" -T "ALBUM=%g" -T "DATE=%y" -T "GENRE=%m" %s -o %d

TOC of the extracted CD

Track | Start | Length | Start sector | End sector --------------------------------------------------------- 1 | 0:00.00 | 2:51.32 | 0 | 12856 2 | 2:51.32 | 2:54.01 | 12857 | 25907 3 | 5:45.33 | 2:48.55 | 25908 | 38562 4 | 8:34.13 | 3:36.02 | 38563 | 54764 5 | 12:10.15 | 2:51.15 | 54765 | 67604 6 | 15:01.30 | 3:44.17 | 67605 | 84421 7 | 18:45.47 | 3:32.71 | 84422 | 100392 8 | 22:18.43 | 2:39.18 | 100393 | 112335 9 | 24:57.61 | 3:32.68 | 112336 | 128303 10 | 28:30.54 | 3:13.13 | 128304 | 142791

Range status and errors

Selected range

Filename J:\temp\nnm\VOL3CD2 The Revolutionaries - Green Bay Dub.wav

Peak level 92.7 % Range quality 100.0 % Test CRC 7248113D Copy CRC 7248113D Copy OK

No errors occurred

AccurateRip summary

Track 1 accurately ripped (confidence 2) [7DDC46FC]Track 2 accurately ripped (confidence 2) [CFB1F869]Track 3 accurately ripped (confidence 2) [02631E57]Track 4 accurately ripped (confidence 2) [7BEAD1CB]Track 5 accurately ripped (confidence 2) [96067385]Track 6 accurately ripped (confidence 2) [003B0F0F]Track 7 accurately ripped (confidence 2) [63EC2905]Track 8 accurately ripped (confidence 2) [C0246206]Track 9 accurately ripped (confidence 2) [A680C55F]Track 10 accurately ripped (confidence 2) [79AA2EE1]

All tracks accurately ripped

End of status report
 
Exact Audio Copy V0.99 prebeta 5 from 4. May 2009

EAC extraction logfile from 20. November 2010, 15:34

The Revolutionaries / Outlaw Dub (Evolution Of Dub Vol.3 CD3)

Used drive : PIONEER DVD-RW DVR-111 Adapter: 2 ID: 0

Read mode : SecureUtilize accurate stream : YesDefeat audio cache : YesMake use of C2 pointers : No

Read offset correction : 48Overread into Lead-In and Lead-Out : NoFill up missing offset samples with silence : YesDelete leading and trailing silent blocks : NoNull samples used in CRC calculations : YesUsed interface : Installed external ASPI interface

Used output format : User Defined EncoderSelected bitrate : 1024 kBit/sQuality : HighAdd ID3 tag : NoCommand line compressor : C:\Program Files\Exact Audio Copy\FLAC\FLAC.EXEAdditional command line options : -8 -V -T "ARTIST=%a" -T "ALBUM=%g" -T "DATE=%y" -T "GENRE=%m" %s -o %d

TOC of the extracted CD

Track | Start | Length | Start sector | End sector --------------------------------------------------------- 1 | 0:00.00 | 3:21.04 | 0 | 15078 2 | 3:21.04 | 3:29.31 | 15079 | 30784 3 | 6:50.35 | 3:34.47 | 30785 | 46881 4 | 10:25.07 | 2:46.66 | 46882 | 59397 5 | 13:11.73 | 2:46.37 | 59398 | 71884 6 | 15:58.35 | 2:21.28 | 71885 | 82487 7 | 18:19.63 | 2:46.22 | 82488 | 94959 8 | 21:06.10 | 2:20.00 | 94960 | 105459 9 | 23:26.10 | 2:50.28 | 105460 | 118237 10 | 26:16.38 | 3:34.40 | 118238 | 134327

Range status and errors

Selected range

Filename J:\temp\nnm\VOL3CD3 The Revolutionaries - Outlaw Dub.wav

Peak level 100.0 % Range quality 100.0 % Test CRC 485D49D7 Copy CRC 485D49D7 Copy OK

No errors occurred

AccurateRip summary

Track 1 accurately ripped (confidence 2) [EF892EF8]Track 2 accurately ripped (confidence 2) [1975C604]Track 3 accurately ripped (confidence 2) [772BE1B4]Track 4 accurately ripped (confidence 2) [BF507372]Track 5 accurately ripped (confidence 2) [9D1047FE]Track 6 accurately ripped (confidence 2) [495017AC]Track 7 accurately ripped (confidence 2) [71B689EA]Track 8 accurately ripped (confidence 2) [B8BE5086]Track 9 accurately ripped (confidence 2) [2E51A138]Track 10 accurately ripped (confidence 2) [C5FB4A57]

All tracks accurately ripped

End of status report
 
Exact Audio Copy V0.99 prebeta 5 from 4. May 2009

EAC extraction logfile from 20. November 2010, 15:55

The Revolutionaires / Goldmine Dub (Evolution Of Dub Vol.3 CD4)

Used drive : PIONEER DVD-RW DVR-111 Adapter: 2 ID: 0

Read mode : SecureUtilize accurate stream : YesDefeat audio cache : YesMake use of C2 pointers : No

Read offset correction : 48Overread into Lead-In and Lead-Out : NoFill up missing offset samples with silence : YesDelete leading and trailing silent blocks : NoNull samples used in CRC calculations : YesUsed interface : Installed external ASPI interface

Used output format : User Defined EncoderSelected bitrate : 1024 kBit/sQuality : HighAdd ID3 tag : NoCommand line compressor : C:\Program Files\Exact Audio Copy\FLAC\FLAC.EXEAdditional command line options : -8 -V -T "ARTIST=%a" -T "ALBUM=%g" -T "DATE=%y" -T "GENRE=%m" %s -o %d

TOC of the extracted CD

Track | Start | Length | Start sector | End sector --------------------------------------------------------- 1 | 0:00.32 | 4:02.20 | 32 | 18201 2 | 4:02.52 | 3:12.35 | 18202 | 32636 3 | 7:15.12 | 2:50.60 | 32637 | 45446 4 | 10:05.72 | 3:09.35 | 45447 | 59656 5 | 13:15.32 | 3:07.05 | 59657 | 73686 6 | 16:22.37 | 3:02.35 | 73687 | 87371 7 | 19:24.72 | 3:41.23 | 87372 | 103969 8 | 23:06.20 | 3:10.37 | 103970 | 118256 9 | 26:16.57 | 2:57.18 | 118257 | 131549 10 | 29:14.00 | 3:41.32 | 131550 | 148156

Range status and errors

Selected range

Filename J:\temp\nnm\VOL3CD4 The Revolutionaires - Goldmine Dub.wav

Peak level 99.4 % Range quality 99.9 % Test CRC 50343F7E Copy CRC 50343F7E Copy OK

No errors occurred

AccurateRip summary

Track 1 accurately ripped (confidence 2) [05EF8465]Track 2 accurately ripped (confidence 2) [EA7C38FA]Track 3 accurately ripped (confidence 2) [FB32CF93]Track 4 accurately ripped (confidence 2) [1858C5AF]Track 5 accurately ripped (confidence 2) [6196A438]Track 6 accurately ripped (confidence 2) [470E1DA8]Track 7 accurately ripped (confidence 2) [E1B1C9C1]Track 8 accurately ripped (confidence 2) [384CC073]Track 9 accurately ripped (confidence 2) [F9ED9EDA]Track 10 accurately ripped (confidence 2) [2996AB57]

All tracks accurately ripped

End of status report
 
Exact Audio Copy V0.99 prebeta 5 from 4. May 2009

EAC extraction logfile from 20. November 2010, 16:17

Joe Gibbs & The Professionals / State Of Emergency (Evolution Of Dub Vol.4 CD1)

Used drive : PIONEER DVD-RW DVR-111 Adapter: 2 ID: 0

Read mode : SecureUtilize accurate stream : YesDefeat audio cache : YesMake use of C2 pointers : No

Read offset correction : 48Overread into Lead-In and Lead-Out : NoFill up missing offset samples with silence : YesDelete leading and trailing silent blocks : NoNull samples used in CRC calculations : YesUsed interface : Installed external ASPI interface

Used output format : User Defined EncoderSelected bitrate : 1024 kBit/sQuality : HighAdd ID3 tag : NoCommand line compressor : C:\Program Files\Exact Audio Copy\FLAC\FLAC.EXEAdditional command line options : -8 -V -T "ARTIST=%a" -T "ALBUM=%g" -T "DATE=%y" -T "GENRE=%m" %s -o %d

TOC of the extracted CD

Track | Start | Length | Start sector | End sector --------------------------------------------------------- 1 | 0:00.00 | 2:30.55 | 0 | 11304 2 | 2:30.55 | 2:49.17 | 11305 | 23996 3 | 5:19.72 | 2:53.35 | 23997 | 37006 4 | 8:13.32 | 2:51.03 | 37007 | 49834 5 | 11:04.35 | 3:02.29 | 49835 | 63513 6 | 14:06.64 | 2:50.13 | 63514 | 76276 7 | 16:57.02 | 2:30.23 | 76277 | 87549 8 | 19:27.25 | 3:02.37 | 87550 | 101236 9 | 22:29.62 | 3:23.63 | 101237 | 116524 10 | 25:53.50 | 3:04.52 | 116525 | 130376

Range status and errors

Selected range

Filename J:\temp\nnm\VOL4CD1 Joe Gibbs & The Professionals - State Of Emergency.wav

Peak level 100.0 % Range quality 99.9 % Test CRC B140356A Copy CRC B140356A Copy OK

No errors occurred

AccurateRip summary

Track 1 accurately ripped (confidence 1) [90C41BD7]Track 2 accurately ripped (confidence 1) [B3718F40]Track 3 accurately ripped (confidence 1) [A777832D]Track 4 accurately ripped (confidence 1) [0FA65571]Track 5 accurately ripped (confidence 1) [2CFB6885]Track 6 accurately ripped (confidence 1) [33689581]Track 7 accurately ripped (confidence 1) [911B2B4B]Track 8 accurately ripped (confidence 1) [34672C41]Track 9 accurately ripped (confidence 1) [C296E529]Track 10 accurately ripped (confidence 1) [F4C3016E]

All tracks accurately ripped

End of status report
 
Exact Audio Copy V0.99 prebeta 5 from 4. May 2009

EAC extraction logfile from 20. November 2010, 16:41

Joe Gibbs / Majestic Dub (Evolution Of Dub Vol.4 CD2)

Used drive : PIONEER DVD-RW DVR-111 Adapter: 2 ID: 0

Read mode : SecureUtilize accurate stream : YesDefeat audio cache : YesMake use of C2 pointers : No

Read offset correction : 48Overread into Lead-In and Lead-Out : NoFill up missing offset samples with silence : YesDelete leading and trailing silent blocks : NoNull samples used in CRC calculations : YesUsed interface : Installed external ASPI interface

Used output format : User Defined EncoderSelected bitrate : 1024 kBit/sQuality : HighAdd ID3 tag : NoCommand line compressor : C:\Program Files\Exact Audio Copy\FLAC\FLAC.EXEAdditional command line options : -8 -V -T "ARTIST=%a" -T "ALBUM=%g" -T "DATE=%y" -T "GENRE=%m" %s -o %d

TOC of the extracted CD

Track | Start | Length | Start sector | End sector --------------------------------------------------------- 1 | 0:00.00 | 3:15.24 | 0 | 14648 2 | 3:15.24 | 2:58.46 | 14649 | 28044 3 | 6:13.70 | 3:42.69 | 28045 | 44763 4 | 9:56.64 | 2:42.60 | 44764 | 56973 5 | 12:39.49 | 3:17.01 | 56974 | 71749 6 | 15:56.50 | 2:55.39 | 71750 | 84913 7 | 18:52.14 | 2:54.10 | 84914 | 97973 8 | 21:46.24 | 3:05.38 | 97974 | 111886 9 | 24:51.62 | 3:48.44 | 111887 | 129030

Range status and errors

Selected range

Filename J:\temp\nnm\VOL4CD2 Joe Gibbs - Majestic Dub.wav

Peak level 100.0 % Range quality 99.9 % Test CRC E329A434 Copy CRC E329A434 Copy OK

No errors occurred

AccurateRip summary

Track 1 accurately ripped (confidence 1) [A6DEB4E3]Track 2 accurately ripped (confidence 1) [B14EC521]Track 3 accurately ripped (confidence 1) [93CE81CB]Track 4 accurately ripped (confidence 1) [280335CC]Track 5 accurately ripped (confidence 1) [6A9BB7B0]Track 6 accurately ripped (confidence 1) [8D623862]Track 7 accurately ripped (confidence 1) [B9DCA946]Track 8 accurately ripped (confidence 1) [17641B88]Track 9 accurately ripped (confidence 1) [A351154F]

All tracks accurately ripped

End of status report
 
Exact Audio Copy V0.99 prebeta 5 from 4. May 2009

EAC extraction logfile from 20. November 2010, 16:57

Joe Gibbs And The Professionals / African Dub Chapter 5 (Evolution Of Dub Vol.4 CD3)

Used drive : PIONEER DVD-RW DVR-111 Adapter: 2 ID: 0

Read mode : SecureUtilize accurate stream : YesDefeat audio cache : YesMake use of C2 pointers : No

Read offset correction : 48Overread into Lead-In and Lead-Out : NoFill up missing offset samples with silence : YesDelete leading and trailing silent blocks : NoNull samples used in CRC calculations : YesUsed interface : Installed external ASPI interface

Used output format : User Defined EncoderSelected bitrate : 1024 kBit/sQuality : HighAdd ID3 tag : NoCommand line compressor : C:\Program Files\Exact Audio Copy\FLAC\FLAC.EXEAdditional command line options : -8 -V -T "ARTIST=%a" -T "ALBUM=%g" -T "DATE=%y" -T "GENRE=%m" %s -o %d

TOC of the extracted CD

Track | Start | Length | Start sector | End sector --------------------------------------------------------- 1 | 0:00.00 | 4:35.09 | 0 | 20633 2 | 4:35.09 | 3:38.42 | 20634 | 37025 3 | 8:13.51 | 4:41.08 | 37026 | 58108 4 | 12:54.59 | 4:00.56 | 58109 | 76164 5 | 16:55.40 | 4:05.08 | 76165 | 94547 6 | 21:00.48 | 4:06.63 | 94548 | 113060 7 | 25:07.36 | 4:45.43 | 113061 | 134478 8 | 29:53.04 | 2:27.59 | 134479 | 145562

Range status and errors

Selected range

Filename J:\temp\nnm\VOL4CD3 Joe Gibbs And The Professionals - African Dub Chapter 5.wav

Peak level 98.8 % Range quality 100.0 % Test CRC 1B39370B Copy CRC 1B39370B Copy OK

No errors occurred

AccurateRip summary

Track 1 accurately ripped (confidence 2) [09B091B0]Track 2 accurately ripped (confidence 2) [1117D5F3]Track 3 accurately ripped (confidence 2) [82B8F5A0]Track 4 accurately ripped (confidence 2) [304D64A2]Track 5 accurately ripped (confidence 2) [2A0719A8]Track 6 accurately ripped (confidence 2) [497333F8]Track 7 accurately ripped (confidence 2) [C639C2D0]Track 8 accurately ripped (confidence 2) [52C006CD]

All tracks accurately ripped

End of status report
 
Exact Audio Copy V0.99 prebeta 5 from 4. May 2009

EAC extraction logfile from 20. November 2010, 17:12

Sly & Robbie / Syncopation (Evolution Of Dub Vol.4 CD4)

Used drive : PIONEER DVD-RW DVR-111 Adapter: 2 ID: 0

Read mode : SecureUtilize accurate stream : YesDefeat audio cache : YesMake use of C2 pointers : No

Read offset correction : 48Overread into Lead-In and Lead-Out : NoFill up missing offset samples with silence : YesDelete leading and trailing silent blocks : NoNull samples used in CRC calculations : YesUsed interface : Installed external ASPI interface

Used output format : User Defined EncoderSelected bitrate : 1024 kBit/sQuality : HighAdd ID3 tag : NoCommand line compressor : C:\Program Files\Exact Audio Copy\FLAC\FLAC.EXEAdditional command line options : -8 -V -T "ARTIST=%a" -T "ALBUM=%g" -T "DATE=%y" -T "GENRE=%m" %s -o %d

TOC of the extracted CD

Track | Start | Length | Start sector | End sector --------------------------------------------------------- 1 | 0:00.00 | 3:59.31 | 0 | 17955 2 | 3:59.31 | 4:14.12 | 17956 | 37017 3 | 8:13.43 | 3:16.46 | 37018 | 51763 4 | 11:30.14 | 3:52.09 | 51764 | 69172 5 | 15:22.23 | 3:19.36 | 69173 | 84133 6 | 18:41.59 | 3:56.74 | 84134 | 101907 7 | 22:38.58 | 3:28.25 | 101908 | 117532 8 | 26:07.08 | 3:19.35 | 117533 | 132492

Range status and errors

Selected range

Filename J:\temp\nnm\VOL4CD4 Sly & Robbie - Syncopation.wav

Peak level 100.0 % Range quality 99.9 % Test CRC 6A790A22 Copy CRC 6A790A22 Copy OK

No errors occurred

AccurateRip summary

Track 1 accurately ripped (confidence 2) [F2B5672D]Track 2 accurately ripped (confidence 2) [D83B7100]Track 3 accurately ripped (confidence 2) [51DEF4D9]Track 4 accurately ripped (confidence 2) [2B33663C]Track 5 accurately ripped (confidence 2) [91533F6C]Track 6 accurately ripped (confidence 2) [0D86262C]Track 7 accurately ripped (confidence 2) [849AACE2]Track 8 accurately ripped (confidence 2) [2F373310]

All tracks accurately ripped

End of status report
 
Exact Audio Copy V0.99 prebeta 5 from 4. May 2009

EAC extraction logfile from 20. November 2010, 20:11

The Revolutionaries / Crueshal Dub (Evolution Of Dub Vol.5 CD1)

Used drive : PIONEER DVD-RW DVR-111 Adapter: 2 ID: 0

Read mode : SecureUtilize accurate stream : YesDefeat audio cache : YesMake use of C2 pointers : No

Read offset correction : 48Overread into Lead-In and Lead-Out : NoFill up missing offset samples with silence : YesDelete leading and trailing silent blocks : NoNull samples used in CRC calculations : YesUsed interface : Installed external ASPI interface

Used output format : User Defined EncoderSelected bitrate : 1024 kBit/sQuality : HighAdd ID3 tag : NoCommand line compressor : C:\Program Files\Exact Audio Copy\FLAC\FLAC.EXEAdditional command line options : -8 -V -T "ARTIST=%a" -T "ALBUM=%g" -T "DATE=%y" -T "GENRE=%m" %s -o %d

TOC of the extracted CD

Track | Start | Length | Start sector | End sector --------------------------------------------------------- 1 | 0:00.00 | 3:10.26 | 0 | 14275 2 | 3:10.26 | 4:12.68 | 14276 | 33243 3 | 7:23.19 | 3:37.54 | 33244 | 49572 4 | 11:00.73 | 3:39.65 | 49573 | 66062 5 | 14:40.63 | 2:21.07 | 66063 | 76644 6 | 17:01.70 | 2:35.18 | 76645 | 88287 7 | 19:37.13 | 3:39.19 | 88288 | 104731 8 | 23:16.32 | 3:16.44 | 104732 | 119475 9 | 26:33.01 | 2:30.35 | 119476 | 130760

Range status and errors

Selected range

Filename J:\temp\nnm\VOL5CD1 The Revolutionaries - Crueshal Dub.wav

Peak level 99.7 % Range quality 100.0 % Test CRC B12296E3 Copy CRC B12296E3 Copy OK

No errors occurred

AccurateRip summary

Track 1 accurately ripped (confidence 1) [2156DB57]Track 2 accurately ripped (confidence 1) [74188366]Track 3 accurately ripped (confidence 1) [83203096]Track 4 accurately ripped (confidence 1) [012AA0E3]Track 5 accurately ripped (confidence 1) [4EB6FEE4]Track 6 accurately ripped (confidence 1) [3815237B]Track 7 accurately ripped (confidence 1) [C7412187]Track 8 accurately ripped (confidence 1) [8F42C574]Track 9 accurately ripped (confidence 1) [EE51CFD4]

All tracks accurately ripped

End of status report
 
Exact Audio Copy V0.99 prebeta 5 from 4. May 2009

EAC extraction logfile from 20. November 2010, 20:25

The Revolutionaries / Earthquake Dub (Evolution Of Dub Vol.5 CD2)

Used drive : PIONEER DVD-RW DVR-111 Adapter: 2 ID: 0

Read mode : SecureUtilize accurate stream : YesDefeat audio cache : YesMake use of C2 pointers : No

Read offset correction : 48Overread into Lead-In and Lead-Out : NoFill up missing offset samples with silence : YesDelete leading and trailing silent blocks : NoNull samples used in CRC calculations : YesUsed interface : Installed external ASPI interface

Used output format : User Defined EncoderSelected bitrate : 1024 kBit/sQuality : HighAdd ID3 tag : NoCommand line compressor : C:\Program Files\Exact Audio Copy\FLAC\FLAC.EXEAdditional command line options : -8 -V -T "ARTIST=%a" -T "ALBUM=%g" -T "DATE=%y" -T "GENRE=%m" %s -o %d

TOC of the extracted CD

Track | Start | Length | Start sector | End sector --------------------------------------------------------- 1 | 0:00.00 | 2:40.10 | 0 | 12009 2 | 2:40.10 | 2:46.52 | 12010 | 24511 3 | 5:26.62 | 3:31.17 | 24512 | 40353 4 | 8:58.04 | 3:25.74 | 40354 | 55802 5 | 12:24.03 | 3:32.35 | 55803 | 71737 6 | 15:56.38 | 3:38.01 | 71738 | 88088 7 | 19:34.39 | 3:24.65 | 88089 | 103453 8 | 22:59.29 | 3:30.04 | 103454 | 119207 9 | 26:29.33 | 2:31.32 | 119208 | 130564 10 | 29:00.65 | 2:11.67 | 130565 | 140456

Range status and errors

Selected range

Filename J:\temp\nnm\VOL5CD2 The Revolutionaries - Earthquake Dub.wav

Peak level 99.7 % Range quality 100.0 % Test CRC 880AAADA Copy CRC 880AAADA Copy OK

No errors occurred

AccurateRip summary

Track 1 accurately ripped (confidence 2) [EA5645D9]Track 2 accurately ripped (confidence 2) [7702945D]Track 3 accurately ripped (confidence 2) [9B2664A0]Track 4 accurately ripped (confidence 2) [91693B87]Track 5 accurately ripped (confidence 2) [78C12BF5]Track 6 accurately ripped (confidence 2) [DB9FB33F]Track 7 accurately ripped (confidence 2) [ED115E0B]Track 8 accurately ripped (confidence 2) [4A7D4692]Track 9 accurately ripped (confidence 2) [7B4AF816]Track 10 accurately ripped (confidence 2) [130C94C9]

All tracks accurately ripped

End of status report
 
Exact Audio Copy V0.99 prebeta 5 from 4. May 2009

EAC extraction logfile from 20. November 2010, 20:42

Sir Coxsone Sound / King Of The Dub Rock (Evolution Of Dub Vol.5 CD3)

Used drive : PIONEER DVD-RW DVR-111 Adapter: 2 ID: 0

Read mode : SecureUtilize accurate stream : YesDefeat audio cache : YesMake use of C2 pointers : No

Read offset correction : 48Overread into Lead-In and Lead-Out : NoFill up missing offset samples with silence : YesDelete leading and trailing silent blocks : NoNull samples used in CRC calculations : YesUsed interface : Installed external ASPI interface

Used output format : User Defined EncoderSelected bitrate : 1024 kBit/sQuality : HighAdd ID3 tag : NoCommand line compressor : C:\Program Files\Exact Audio Copy\FLAC\FLAC.EXEAdditional command line options : -8 -V -T "ARTIST=%a" -T "ALBUM=%g" -T "DATE=%y" -T "GENRE=%m" %s -o %d

TOC of the extracted CD

Track | Start | Length | Start sector | End sector --------------------------------------------------------- 1 | 0:00.00 | 2:27.50 | 0 | 11074 2 | 2:27.50 | 3:50.23 | 11075 | 28347 3 | 6:17.73 | 3:25.23 | 28348 | 43745 4 | 9:43.21 | 2:55.47 | 43746 | 56917 5 | 12:38.68 | 3:30.14 | 56918 | 72681 6 | 16:09.07 | 2:02.13 | 72682 | 81844 7 | 18:11.20 | 4:01.14 | 81845 | 99933 8 | 22:12.34 | 4:06.01 | 99934 | 118384 9 | 26:18.35 | 2:54.61 | 118385 | 131495 10 | 29:13.21 | 4:15.40 | 131496 | 150660

Range status and errors

Selected range

Filename J:\temp\nnm\VOL5CD3 Sir Coxsone Sound - King Of The Dub Rock.wav

Peak level 99.7 % Range quality 100.0 % Test CRC AAF7A30F Copy CRC AAF7A30F Copy OK

No errors occurred

AccurateRip summary

Track 1 not present in databaseTrack 2 not present in databaseTrack 3 not present in databaseTrack 4 not present in databaseTrack 5 not present in databaseTrack 6 not present in databaseTrack 7 not present in databaseTrack 8 not present in databaseTrack 9 not present in databaseTrack 10 accurately ripped (confidence 2) [13465453]

1 track(s) accurately ripped 9 track(s) not present in the AccurateRip database

Some tracks could not be verified as accurate

End of status report
 
Exact Audio Copy V0.99 prebeta 5 from 4. May 2009

EAC extraction logfile from 20. November 2010, 21:00

Sir Coxsone Sound / King Of The Dub Rock Part 2 (Evolution Of Dub Vol.5 CD4)

Used drive : PIONEER DVD-RW DVR-111 Adapter: 2 ID: 0

Read mode : SecureUtilize accurate stream : YesDefeat audio cache : YesMake use of C2 pointers : No

Read offset correction : 48Overread into Lead-In and Lead-Out : NoFill up missing offset samples with silence : YesDelete leading and trailing silent blocks : NoNull samples used in CRC calculations : YesUsed interface : Installed external ASPI interface

Used output format : User Defined EncoderSelected bitrate : 1024 kBit/sQuality : HighAdd ID3 tag : NoCommand line compressor : C:\Program Files\Exact Audio Copy\FLAC\FLAC.EXEAdditional command line options : -8 -V -T "ARTIST=%a" -T "ALBUM=%g" -T "DATE=%y" -T "GENRE=%m" %s -o %d

TOC of the extracted CD

Track | Start | Length | Start sector | End sector --------------------------------------------------------- 1 | 0:00.00 | 6:08.28 | 0 | 27627 2 | 6:08.28 | 4:07.41 | 27628 | 46193 3 | 10:15.69 | 3:04.42 | 46194 | 60035 4 | 13:20.36 | 3:22.70 | 60036 | 75255 5 | 16:43.31 | 4:33.05 | 75256 | 95735 6 | 21:16.36 | 4:03.20 | 95736 | 113980 7 | 25:19.56 | 4:45.51 | 113981 | 135406 8 | 30:05.32 | 3:51.42 | 135407 | 152773 9 | 33:56.74 | 3:38.07 | 152774 | 169130 10 | 37:35.06 | 5:12.11 | 169131 | 192541

Range status and errors

Selected range

Filename J:\temp\nnm\VOL5CD4 Sir Coxsone Sound - King Of The Dub Rock Part 2.wav

Peak level 99.7 % Range quality 100.0 % Test CRC C64757DE Copy CRC C64757DE Copy OK

No errors occurred

AccurateRip summary

Track 1 accurately ripped (confidence 1) [4B1B52DF]Track 2 accurately ripped (confidence 1) [9FB4ABC4]Track 3 accurately ripped (confidence 1) [5C8ED428]Track 4 accurately ripped (confidence 1) [0EFA516E]Track 5 accurately ripped (confidence 1) [86468C0F]Track 6 accurately ripped (confidence 1) [CAA51D4A]Track 7 accurately ripped (confidence 1) [FB5BFB83]Track 8 accurately ripped (confidence 1) [4BDF6493]Track 9 accurately ripped (confidence 1) [4775862D]Track 10 accurately ripped (confidence 1) [1437C31B]

All tracks accurately ripped

End of status report


Трекер:  [ 15-Фев-2011 12:56 ]

  

Скачать .torrent

Размер .torrent файла 27 KB


Размер: 3.25 GB
Хэш (hash) релиза: bf35628f961713bc3527bbb2e7c4af9ac13e4566

Еще никто не оставлял запись к записи скачать торрент VA - Evolution Of Dub Volume 1-5 - 20CD - 2009-2010 . Будь первым!

!Обратная связь