03 lis 2010 20:35 | Happy Holiday | فيلم Sanju 2018 مترجم مشاهدة وتحميل فيلم الدراما الهندي Sanju 2018 HD مترجم اون لاين وتحميل مباشر

Скачать через торрент [MULT] Планета Халка Planet Hulk бесплатно русская версия torrent активатор

Статистика раздачи
Размер:  793 MB   |    Зарегистрирован:  4 года 6 месяцев   |    .torrent скачан:  47 раз   |   
Раздают:  1  
   
загрузка...
 
Автор Сообщение

Galfimbul

avatar Galfimbul


Планета Халка
Planet Hulk

Год выпуска: 2010
Страна: США (Lionsgate, Marvel Animation, MLG Productions 8)
Жанр: Фантастика, боевик, приключения
Продолжительность: 1:21:08
Перевод: Любительский (многоголосый закадровый) [SkyeFilmTV]
Оригинальная дорожка: Есть
Cубтитры: Нет
Режиссер: Сэм Лью / Sam Liu
Роли озвучивали: Рик Д. Вассерман, Лиза Энн Бели, Марк Хилдрет, Лайам О’Брайэн, Кевин Майкл Ричардсон, Сэм Винсент, Адвах Судак, Майкл Копса, Пол Добсон, Марк Уорден
Описание: По сюжету, Иллюминаты (тайное общество супергероев, в числе которых Железный Человек и Профессор Чарльз Ксавье) хитростью заманивают Халка, ставшего угрозой планетарного масштаба, и высылают его на пустынную планету, где Халк по их мнению не причинит никому вреда. Однако во время полета Халк звереет, ломает корабль и падает на опасную планету Сакаар. Там его берут в плен и заставляют участвовать в гладиаторских боях, из которых он не только выходит победителем, но и устраивает переворот...

Качество: HDRip
Формат: MP4
Видео кодек: H.264
Аудио кодек: AAC
Видео: 800х448 (16:9), 1 099 Kbps, 23.976 fps
Аудио 1: Русский, 2 ch, 48 kHz, 128 kbps [MVO, SkyeFilmTV]
Аудио 2: Английский, 2 ch, 48 kHz, 128 kbps [Original]
x264 [info]: frame I:1492 Avg QP:15.02 size: 51841
x264 [info]: frame P:36959 Avg QP:18.52 size: 11091
x264 [info]: frame B:78256 Avg QP:22.46 size: 2320

x264 [total]: encoded 116707 frames, 26.26 fps, 1099.27 kb/s
General
Complete name : [MULT] Planet.Hulk.2010.HDRip.x264.800x(semen_52-TNC).mp4
Format : MPEG-4
Format profile : Base Media
Codec ID : isom
File size : 793 MiB
Duration : 1h 21mn
Overall bit rate mode : Variable
Overall bit rate : 1 366 Kbps
Encoded date : UTC 2014-02-17 18:52:44
Tagged date : UTC 2014-02-17 18:54:12
Writing application : MkvToMp4 version: 0.224 (x64)
Comment : Rip by semen_52-TNC
stik : 9

Video
ID : 1
Format : AVC
Format/Info : Advanced Video Codec
Format profile : [email protected]
Format settings, CABAC : Yes
Format settings, ReFrames : 8 frames
Codec ID : avc1
Codec ID/Info : Advanced Video Coding
Duration : 1h 21mn
Bit rate : 1 099 Kbps
Maximum bit rate : 7 248 Kbps
Width : 800 pixels
Height : 448 pixels
Display aspect ratio : 16:9
Frame rate mode : Constant
Frame rate : 23.976 fps
Color space : YUV
Chroma subsampling : 4:2:0
Bit depth : 8 bits
Scan type : Progressive
Bits/(Pixel*Frame) : 0.128
Stream size : 638 MiB (80%)
Writing library : x264 core 130 r2273 b3065e6
Encoding settings : cabac=1 / ref=8 / deblock=1:-3:-3 / analyse=0x3:0x113 / me=umh / subme=9 / psy=1 / psy_rd=1.00:0.00 / mixed_ref=1 / me_range=16 / chroma_me=1 / trellis=2 / 8x8dct=1 / cqm=0 / deadzone=21,11 / fast_pskip=0 / chroma_qp_offset=-2 / threads=4 / lookahead_threads=4 / sliced_threads=0 / nr=0 / decimate=0 / interlaced=0 / bluray_compat=0 / constrained_intra=0 / bframes=3 / b_pyramid=2 / b_adapt=2 / b_bias=0 / direct=3 / weightb=1 / open_gop=0 / weightp=2 / keyint=250 / keyint_min=23 / scenecut=40 / intra_refresh=0 / rc_lookahead=90 / rc=crf / mbtree=1 / crf=18.3 / qcomp=0.60 / qpmin=0 / qpmax=69 / qpstep=4 / ip_ratio=1.40 / aq=2:0.60
Language : English
Encoded date : UTC 2014-02-17 18:52:44
Tagged date : UTC 2014-02-17 18:53:14

Audio #1
ID : 2
Format : AAC
Format/Info : Advanced Audio Codec
Format profile : LC
Codec ID : 40
Duration : 1h 21mn
Bit rate mode : Variable
Bit rate : 128 Kbps
Maximum bit rate : 172 Kbps
Channel(s) : 2 channels
Channel positions : Front: L R
Sampling rate : 44.1 KHz
Compression mode : Lossy
Stream size : 74.2 MiB (9%)
Title : SkyeFilmTV
Language : Russian
Encoded date : UTC 2014-02-17 18:52:55
Tagged date : UTC 2014-02-17 18:53:14

Audio #2
ID : 3
Format : AAC
Format/Info : Advanced Audio Codec
Format profile : LC
Codec ID : 40
Duration : 1h 21mn
Bit rate mode : Variable
Bit rate : 128 Kbps
Maximum bit rate : 171 Kbps
Channel(s) : 2 channels
Channel positions : Front: L R
Sampling rate : 48.0 KHz
Compression mode : Lossy
Stream size : 74.2 MiB (9%)
Title : Original
Language : English
Encoded date : UTC 2014-02-17 18:52:59
Tagged date : UTC 2014-02-17 18:53:14


Трекер:  [ 18-Фев-2014 14:54 ]

  

Скачать .torrent

Размер .torrent файла 16 KB


Размер: 793 MB
Хэш (hash) релиза: 27ef6ef1d9d84b5387ffce5332b76b5059d3d00e

Еще никто не оставлял запись к записи скачать торрент [MULT] Планета Халка Planet Hulk . Будь первым!

!Обратная связь