The Avengers (2012) | Running Man Episode 7 | Renai Boukun: Season 1

Скачать через торрент Блич бесплатно Аниме Все серии на русском torrent

Статистика раздачи
Размер:  1.23 GB   |    Зарегистрирован:  4 года 5 месяцев   |    .torrent скачан:  70 раз   |   
Раздают:  1  
   
загрузка...
 
Автор Сообщение

Polarnik

avatar Polarnik


Блич (фильм первый) Воспоминания ни о ком / Bleach the Movie: Memories of Nobody
Год выпуска: 2006
Страна: Япония
Жанр: приключения, фэнтези
Тип: Movie
Продолжительность: 01:32:52
Озвучка: двухголосая (муж./жен.) от loster01 & Emeri
Cубтитры: SRT, ASS (внешние) от Vallar (перевод)
Режиссер: Абэ Нориюки
Студия:
Описание:Однажды в Каракуре произошел следующий случай. В городе появилась группа созданий, именуемых "пустыми". Рукия и Ичиго отправились в разведку, по пути обнаружив еще одну шинигами Сенну. Впрочем, помимо имени ее меча, Мирокумару, никакой информации о ней нет. О принадлежности к какому-либо отряду она также не упоминает. В Обществе Душ также неспокойно. В небе над Сейрейтеи образовалась проекция мира живых. Объявлено чрезвычайное положение, проводится срочное расследование данного случая. Для некоторых шинигами это событие послужило знаком приближающегося конца. Если баланс между Обществом Душ и реальным миром пошатнется, оба мира могут пострадать. Тем временем, Хитсугая Тоширо получает специальный приказ... Ичиго и Сенна обнаруживают группу людей, называющих себя "Темными". Их лидер Ганрю одержим идеей уничтожения мира. Также неизвестно, почему Темные преследуют Сенну. На все у героев есть только час, час до конца мира. Битва между шинигами и Темными уже началась. Отсчет пошел...
© Hollow, World Art
Информационные ссылки: AniDB || World Art ||MAL
Качество: BDRip
Тип релиза: без хардсаба
Формат: AVI (Сэмпл)
Видео: 720x400 (1.80:1), 23.976 fps, XviD build 47 ~1500 kbps avg, 0.34 bit/pixel
Аудио #1: 48 kHz, MPEG Layer 3, 2 ch, ~192.00 kbps avg (Rus) (в составе контейнера)
Аудио #2: 48 kHz, MPEG Layer 3, 2 ch, ~192.00 kbps avg (Jap)
General
Complete name : D:\Видео\Аниме\HWP\Bleach the Movie Memories of Nobody\Bleach the Movie Memories of Nobody.avi
Format : AVI
Format/Info : Audio Video Interleave
File size : 1.23 GiB
Duration : 1h 32mn
Overall bit rate : 1 898 Kbps
Writing application : VirtualDubMod 1.5.10.3 (build 2550/release)
Writing library : VirtualDubMod build 2550/release

Video
ID : 0
Format : MPEG-4 Visual
Format profile : Advanced [email protected]
Format settings, BVOP : 1
Format settings, QPel : No
Format settings, GMC : No warppoints
Format settings, Matrix : Default (H.263)
Codec ID : XVID
Codec ID/Hint : XviD
Duration : 1h 32mn
Bit rate : 1 500 Kbps
Width : 720 pixels
Height : 400 pixels
Display aspect ratio : 16:9
Frame rate : 23.976 fps
Color space : YUV
Chroma subsampling : 4:2:0
Bit depth : 8 bits
Scan type : Progressive
Compression mode : Lossy
Bits/(Pixel*Frame) : 0.208
Stream size : 996 MiB (79%)
Writing library : XviD 1.2.0.dev47 (UTC 2006-11-01)

Audio #1
ID : 1
Format : MPEG Audio
Format version : Version 1
Format profile : Layer 3
Mode : Joint stereo
Codec ID : 55
Codec ID/Hint : MP3
Duration : 1h 32mn
Bit rate mode : Constant
Bit rate : 192 Kbps
Channel count : 2 channels
Sampling rate : 48.0 KHz
Compression mode : Lossy
Stream size : 128 MiB (10%)
Alignment : Aligned on interleaves
Interleave, duration : 40 ms (1.00 video frame)
Interleave, preload duration : 504 ms

Audio #2
ID : 2
Format : MPEG Audio
Format version : Version 1
Format profile : Layer 3
Mode : Joint stereo
Mode extension : MS Stereo
Codec ID : 55
Codec ID/Hint : MP3
Duration : 1h 32mn
Bit rate mode : Constant
Bit rate : 192 Kbps
Channel count : 2 channels
Sampling rate : 48.0 KHz
Compression mode : Lossy
Stream size : 128 MiB (10%)
Alignment : Aligned on interleaves
Interleave, duration : 40 ms (1.00 video frame)
Interleave, preload duration : 504 ms
Writing library : LAME3.98.4


Трекер:  [ 09-Фев-2014 14:23 ]

  

Скачать .torrent

Размер .torrent файла 13 KB


Размер: 1.23 GB
Хэш (hash) релиза: 7c6165c1c494461b89c3601780ef1fa35136722e
Подписка на обновления:

Торренты, похожие на Блич скачать торрент

Форум Название Автор Размер S L Добавлен
Аниме | HD Rips ·· Блич (фильм четвёртый): Врата Ада / Gekijouban Bleach: Jigoku-hen / Bleach: The Hell Verse (Абэ Нориюки) [Movie] [без хардсаба] [RUS(ext), JAP +SUB] [2010, Приключения, фэнтези, сёнэн, BDRip] [720p] Galfimbul 36269895073.38 GB 0 0 1499608957

17:02

9-Июл-17

Аниме | HD Rips ·· Блич (фильм четвёртый): Врата Ада / Gekijouban Bleach: Jigoku-hen / Bleach: The Hell Verse (Абэ Нориюки) [Movie] [без хардсаба] [RUS(ext), JAP +SUB] [2010, Приключения, фэнтези, сёнэн, BDRemux] [1080p] Galfimbul 1589951667114.81 GB 0 0 1499608952

17:02

9-Июл-17

Аниме | HD Rips ·· Блич / Bleach [TV] [6 из 366] [Без хардсаба] [RUS(ext), JAP+SUB] [2004, приключения, комедия, фэнтези, сёнэн, BDRip] [720p] Galfimbul 28788555822.68 GB 0 0 1482087805

22:03

18-Дек-16

Аниме | HD Rips ·· Блич / Bleach [TV] [2 из 366] [Без хардсаба] [RUS(ext), JAP+SUB] [2004, приключения, комедия, фэнтези, сёнэн, BDRip] [720p] Galfimbul 960304216916 MB 0 0 1480280892

00:08

28-Ноя-16

Аниме | HD Rips ·· Блич / Bleach [TV] [1 из 366] [Без хардсаба] [RUS(int), JAP+SUB] [2004, приключения, комедия, фэнтези, сёнэн, BDRip] [720p] Galfimbul 413635365394 MB 0 0 1474192728

12:58

18-Сен-16

Аниме | HD Rips ·· Блич (фильм четвёртый): Врата Ада / Bleach: The Hell Verse (Абэ Нориюки) [Movie] [без хардсаба] [RUS(ext), JAP +SUB] [2010, Приключения, фэнтези, сёнэн, BDRemux] [1080p] Galfimbul 1598967335814.89 GB 0 0 1465913671

17:14

14-Июн-16

Аниме | HD Rips ·· Блич (фильм четвёртый): Врата Ада / Bleach: The Hell Verse (Абэ Нориюки) [Movie] [без хардсаба] [RUS(ext), JAP +SUB] [2010, Приключения, фэнтези, сёнэн, BDRip] [720p] Galfimbul 37171461943.46 GB 0 0 1465908566

15:49

14-Июн-16

Аниме | Rips ·· Блич / Bleach [TV] [110-131 из 366] [Без хардсаба] [RUS(ext), JAP+SUB] [2004 г., Приключения, комедия, фэнтези, сёнэн, DVDRemux] Galfimbul 3839963332135.76 GB 0 0 1462881425

14:57

10-Май-16

Аниме | Rips ·· Блич / Bleach [TV] [1-71 из 366] [Без хардсаба] [RUS(ext),ENG(ext),JAP+SUB] [2004 г., Сенен, Экщн, Комедия, DVDRemux] Galfimbul 149054749119138.82 GB 0 0 1462025081

17:04

30-Апр-16

Аниме | Rips ·· Блич / Bleach [TV] [1-71 из 366] [Без хардсаба] [RUS(ext),ENG(ext),JAP+SUB] [2004 г., Сенен, Экщн, Комедия, DVDRemux] Galfimbul 126504016623117.82 GB 0 0 1461585208

14:53

25-Апр-16

Аниме | Rips ·· Блич / Bleach [TV] [1-56 из 366] [Без хардсаба] [RUS(ext),ENG(ext),JAP+SUB] [2004 г., Сенен, Экщн, Комедия, DVDRemux] Galfimbul 9506719541488.54 GB 0 0 1461314753

11:45

22-Апр-16

Аниме | Rips ·· Блич / Bleach [TV] [1-45 из 366] [Без хардсаба] [RUS(ext),ENG(ext),JAP+SUB] [2004 г., Сенен, Экщн, Комедия, DVDRemux] Galfimbul 7565119788170.46 GB 0 0 1461034411

05:53

19-Апр-16

Аниме | HD Rips ·· Блич (фильм третий): Исчезая в темноту, я звала тебя / Bleach: Fade to Black - I Call Your Name [Movie] [Без хардсаба] [JAP, RUS(ext), RUS(ext), SUB] [2008 г., сёнэн, фэнтези, приключения, боевик, BDRip] [1080p] Galfimbul 1200731083211.18 GB 0 0 1429910398

00:19

25-Апр-15

Манга ·· Kubo Tite - Блич / Bleach [manga] [1-563 + 8 specials] [2001 г., сёнэн, драма, комедия] [incomplete] Galfimbul 29159314412.72 GB 0 0 1388183414

01:30

28-Дек-13

Манга ·· Kubo Tite - Блич / Bleach [manga] [1-560 + 8 specials] [2001 г., сёнэн, драма, комедия] [incomplete] Polarnik 29041588682.7 GB 0 0 1386253856

17:30

5-Дек-13

Блич | Bleach ·· Блич / Bleach (Абэ Нориюки) [1-143 из 366] [TV][без хардсаба][RUS(int),JAP+SUB][2004, приключения, комедия, фэнтези, сёнэн, DVDRip] Galfimbul 4355493746640.56 GB 0 0 1385929934

23:32

1-Дек-13

Блич | Bleach ·· Блич: Неистовство Заточённого Меча / Bleach: The Sealed Sword Frenzy [OVA] [1 из 1] [Без хардсаба] [RUS(int), JAP] [2006 г., приключения, фэнтези, DVDRip] Polarnik 371084132354 MB 0 0 1379919139

09:52

23-Сен-13

Аниме | DVD ·· Блич Фильм 4: Врата Ада / Bleach Movie 4: The Hell Verse / Gekijouban Bleach: Jigoku-hen [Movie] [RUS, JAP, SUB] [2010 г., приключения, комедия, фэнтези, сёнэн] [1 x DVD9] Polarnik 74272051206.92 GB 0 0 1361796485

15:48

25-Фев-13

Блич | Bleach ·· Блич Фильм 4: Врата Ада / Bleach Movie 4: The Hell Verse [Movie] [Без хардсаба] [JAP, RUS(ext), SUB] [2010 г., приключения, комедия, фэнтези, сёнэн, BDRip] [1080p] Galfimbul 39725773173.7 GB 3 0 1354615260

13:01

4-Дек-12

Еще никто не оставлял запись к записи скачать торрент Блич . Будь первым!

!Обратная связь