WWE SummerSlam 2018 PPV HDTV x264-Star [TJET] | TV Shows | Fear the Walking Dead S04E10 HDTV x264-SVA[eztv] mkv

Скачать через торрент [MULT] Новые Мстители Защитники Справедливости: Дилогия бесплатно русская версия torrent активатор

Статистика раздачи
Размер:  1.27 GB   |    Зарегистрирован:  4 года 6 месяцев   |    .torrent скачан:  50 раз   |   
Раздают:  1  
   
загрузка...
 
Автор Сообщение

Galfimbul

avatar Galfimbul



Новые Мстители / Защитники Справедливости: Дилогия
Ultimate Avengers: Dilogy
Год выпуска: 2006
Страна: США / USA
Жанр: Мультфильм, фантастика, фэнтези, боевик, приключения
Продолжительность: 01:11:21, 01:12:47
Режиссер (Часть): Курт Геда / Curt Geda (1), Стивен Е. Гордон / Steven E. Gordon (1), Боб Ричардсон / Bob Richardson (1, 2), Уилл Меньот / Will Meugniot (2), Дик Сэбаст / Dick Sebast (2)
Новые Мстители / Защитники Справедливости
Ultimate Avengers

Год выпуска: 2006
Страна: США (Marvel Studios Inc., MLG Productions 1)
Жанр: Мультфильм, фантастика, фэнтези, боевик, приключения
Продолжительность: 01:11:21
Перевод: Профессиональный (Многоголосый, закадровый)
Оригинальная дорожка: Нет
Cубтитры: Нет
Режиссер: Курт Геда / Curt Geda, Стивен Е. Гордон / Steven E. Gordon, Боб Ричардсон / Bob Richardson
Роли озвучивали: Джастин Гросс, Грэй ДеЛисл, Майкл Масси, Марк Уорден, Оливия д’Або, Нэн МакНамара, Нолан Норт, Андре Уэр, Дэвид Боат, Фред Татаскьор
Описание: В конце Второй Мировой войны молодой военный по имени Стив Роджерс стал частью эксперимента, благодаря которому США надеялись подавить последние очаги сопротивления нацистов на втором фронте. Результатом эксперимента стал сверхчеловек, «Капитан Америка», оставшийся Стивом Роджерсом лишь в повседневной жизни.
Но на первом же задании, атакуя секретный бункер фашистов, Роджерс лицом к лицу сталкивается с таинственным генералом Кляйзером — неуязвимым мутантом, вставшим во главе отряда чудовищ. Ценой собственной жизни Роджерсу удается обезвредить Кляйзера, но сам он бесследно исчезает, и его считают погибшим. Спустя 60 лет научный отдел Пентагона, проводя исследования во льдах Антарктики, случайно находит человека, вмерзшего в огромную льдину.
Вскоре выясняется, что этот человек не кто иной, как Стив Роджерс. Сверхчеловеческие способности помогли ему выжить, и теперь «Капитан Америка» должен возглавить целый отряд супергероев, чтобы противостоять генералу Кляйзеру, который успел набраться сил, и теперь стремится захватить одну из центральных военных баз.

Качество: HDRip
Формат: MP4
Видео кодек: H.264
Аудио кодек: AAC
Видео: 800х448 (16:9), 1 144 Kbps, 23.976 fps
Аудио: Русский, 2 ch, 48 kHz, 128 kbps [MVO]
x264 [info]: frame I:1596 Avg QP:14.54 size: 55251
x264 [info]: frame P:33690 Avg QP:18.79 size: 10645
x264 [info]: frame B:67361 Avg QP:22.65 size: 2455

x264 [total]: encoded 102647 frames, 28.13 fps, 1143.87 kb/s
General
Complete name : Ultimate.Avengers.Dilogy.HDRip.x264.800x(semen_52-TNC)\[MULT] Ultimate.Avengers.1.2006.HDRip.x264.800x(semen_52-TNC).mp4
Format : MPEG-4
Format profile : Base Media
Codec ID : isom
File size : 653 MiB
Duration : 1h 11mn
Overall bit rate mode : Variable
Overall bit rate : 1 280 Kbps
Encoded date : UTC 2014-02-05 13:59:25
Tagged date : UTC 2014-02-05 14:00:24
Writing application : MkvToMp4 version: 0.224 (x64)
Comment : Rip by semen_52-TNC
stik : 9

Video
ID : 1
Format : AVC
Format/Info : Advanced Video Codec
Format profile : [email protected]
Format settings, CABAC : Yes
Format settings, ReFrames : 8 frames
Codec ID : avc1
Codec ID/Info : Advanced Video Coding
Duration : 1h 11mn
Bit rate : 1 144 Kbps
Maximum bit rate : 11.2 Mbps
Width : 800 pixels
Height : 448 pixels
Display aspect ratio : 16:9
Frame rate mode : Constant
Frame rate : 23.976 fps
Color space : YUV
Chroma subsampling : 4:2:0
Bit depth : 8 bits
Scan type : Progressive
Bits/(Pixel*Frame) : 0.133
Stream size : 584 MiB (89%)
Writing library : x264 core 130 r2273 b3065e6
Encoding settings : cabac=1 / ref=8 / deblock=1:-3:-3 / analyse=0x3:0x133 / me=umh / subme=9 / psy=1 / psy_rd=1.00:0.00 / mixed_ref=1 / me_range=16 / chroma_me=1 / trellis=2 / 8x8dct=1 / cqm=0 / deadzone=21,11 / fast_pskip=0 / chroma_qp_offset=-4 / threads=4 / lookahead_threads=4 / sliced_threads=0 / nr=0 / decimate=0 / interlaced=0 / bluray_compat=0 / constrained_intra=0 / bframes=3 / b_pyramid=2 / b_adapt=2 / b_bias=0 / direct=3 / weightb=1 / open_gop=0 / weightp=2 / keyint=250 / keyint_min=23 / scenecut=40 / intra_refresh=0 / rc_lookahead=90 / rc=crf / mbtree=1 / crf=18.3 / qcomp=0.60 / qpmin=0 / qpmax=69 / qpstep=4 / ip_ratio=1.40 / aq=2:0.60
Language : English
Encoded date : UTC 2014-02-05 13:59:25
Tagged date : UTC 2014-02-05 13:59:38

Audio
ID : 2
Format : AAC
Format/Info : Advanced Audio Codec
Format profile : LC
Codec ID : 40
Duration : 1h 11mn
Bit rate mode : Variable
Bit rate : 128 Kbps
Maximum bit rate : 164 Kbps
Channel(s) : 2 channels
Channel positions : Front: L R
Sampling rate : 48.0 KHz
Compression mode : Lossy
Stream size : 65.3 MiB (10%)
Title : MVO
Language : Russian
Encoded date : UTC 2014-02-05 13:59:35
Tagged date : UTC 2014-02-05 13:59:38
Несокрушимые Мстители / Новые Мстители 2 / Защитники Справедливости 2
Ultimate Avengers II

Год выпуска: 2006
Страна: США (Marvel Studios Inc., MLG Productions 2)
Жанр: Мультфильм, фантастика, фэнтези, боевик, приключения
Продолжительность: 01:12:47
Перевод: Профессиональный (Многоголосый, закадровый)
Оригинальная дорожка: Нет
Cубтитры: Нет
Режиссер: Уилл Меньот / Will Meugniot, Дик Сэбаст / Dick Sebast, Боб Ричардсон / Bob Richardson
Роли озвучивали: Джастин Гросс, Грэй ДеЛисл, Майкл Масси, Марк Уорден, Оливия д’Або, Нэн МакНамара, Нолан Норт, Андре Уэр, Дэвид Боат, Фред Татаскьор
Описание: Команда супергероев «Капитана Америка» отправляется в Африку, где был вероломно убит король одного из древних племен. Теперь смертельная опасность угрожает его сыну — Черной Пантере. Именно ему предстоит унаследовать трон и сверхъестественные способности отца.

Генерал Кляйзер, желая обрести мировое господство, стремится завладеть могучим артефактом, который мужественно защищает племя Пантеры. Но выстоять против могучей армии Кляйзера практически невозможно… Только с помощью знаменитых героев комиксов Марвел у Черной Пантеры есть шанс спасти мир от катастрофы.

Качество: HDRip
Формат: MP4
Видео кодек: H.264
Аудио кодек: AAC
Видео: 800х448 (16:9), 1 106 Kbps, 23.976 fps
Аудио: Русский, 2 ch, 48 kHz, 128 kbps [MVO]
x264 [info]: frame I:1672 Avg QP:14.56 size: 52292
x264 [info]: frame P:34717 Avg QP:18.71 size: 10259
x264 [info]: frame B:68322 Avg QP:22.64 size: 2342

x264 [total]: encoded 104711 frames, 26.59 fps, 1105.71 kb/s
General
Complete name : F:\Мультфильмы\!!!RG\Ultimate.Avengers.Dilogy.HDRip.x264.800x(semen_52-TNC)\[MULT] Ultimate.Avengers.2.2006.HDRip.x264.800x(semen_52-TNC).mp4
Format : MPEG-4
Format profile : Base Media
Codec ID : isom
File size : 647 MiB
Duration : 1h 12mn
Overall bit rate mode : Variable
Overall bit rate : 1 242 Kbps
Encoded date : UTC 2014-02-05 14:00:48
Tagged date : UTC 2014-02-05 14:02:06
Writing application : MkvToMp4 [www.mkvtomp4.ru] version: 0.224 (x64)
Comment : Rip by semen_52-TNC
stik : 9

Video
ID : 1
Format : AVC
Format/Info : Advanced Video Codec
Format profile : [email protected]
Format settings, CABAC : Yes
Format settings, ReFrames : 8 frames
Codec ID : avc1
Codec ID/Info : Advanced Video Coding
Duration : 1h 12mn
Bit rate : 1 106 Kbps
Maximum bit rate : 9 653 Kbps
Width : 800 pixels
Height : 448 pixels
Display aspect ratio : 16:9
Frame rate mode : Constant
Frame rate : 23.976 fps
Color space : YUV
Chroma subsampling : 4:2:0
Bit depth : 8 bits
Scan type : Progressive
Bits/(Pixel*Frame) : 0.129
Stream size : 576 MiB (89%)
Writing library : x264 core 130 r2273 b3065e6
Encoding settings : cabac=1 / ref=8 / deblock=1:-3:-3 / analyse=0x3:0x133 / me=umh / subme=9 / psy=1 / psy_rd=1.00:0.00 / mixed_ref=1 / me_range=16 / chroma_me=1 / trellis=2 / 8x8dct=1 / cqm=0 / deadzone=21,11 / fast_pskip=0 / chroma_qp_offset=-4 / threads=4 / lookahead_threads=4 / sliced_threads=0 / nr=0 / decimate=0 / interlaced=0 / bluray_compat=0 / constrained_intra=0 / bframes=3 / b_pyramid=2 / b_adapt=2 / b_bias=0 / direct=3 / weightb=1 / open_gop=0 / weightp=2 / keyint=250 / keyint_min=23 / scenecut=40 / intra_refresh=0 / rc_lookahead=90 / rc=crf / mbtree=1 / crf=18.3 / qcomp=0.60 / qpmin=0 / qpmax=69 / qpstep=4 / ip_ratio=1.40 / aq=2:0.60
Language : English
Encoded date : UTC 2014-02-05 14:00:48
Tagged date : UTC 2014-02-05 14:01:01

Audio
ID : 2
Format : AAC
Format/Info : Advanced Audio Codec
Format profile : LC
Codec ID : 40
Duration : 1h 12mn
Bit rate mode : Variable
Bit rate : 128 Kbps
Maximum bit rate : 251 Kbps
Channel(s) : 2 channels
Channel positions : Front: L R
Sampling rate : 48.0 KHz
Compression mode : Lossy
Stream size : 66.6 MiB (10%)
Title : MVO
Language : Russian
Encoded date : UTC 2014-02-05 14:00:57
Tagged date : UTC 2014-02-05 14:01:01


Трекер:  [ 05-Фев-2014 19:35 ]

  

Скачать .torrent

Размер .torrent файла 13 KB


Размер: 1.27 GB
Хэш (hash) релиза: 3d767bc9af2a46954cf9a58772ff8fe75852e95d

Еще никто не оставлял запись к записи скачать торрент [MULT] Новые Мстители Защитники Справедливости: Дилогия . Будь первым!

!Обратная связь