Kaikki anteeksi | Download | Pixel Film Studios Plugins For Final Cut Pro Pack 4 Mac Os X coque599

Скачать через торрент [VIDEO] Да здравствует Франция! Vive la France бесплатно русская версия torrent активатор

Статистика раздачи
Размер:  402 MB   |    Зарегистрирован:  4 года 5 месяцев   |    .torrent скачан:  27 раз   |   
Раздают:  1  
   
загрузка...
 
Автор Сообщение

Galfimbul

avatar Galfimbul


Да здравствует Франция!
Vive la France

Год выпуска: 2013
Страна: Франция (Canal+ [fr], Ciné, France 2 Cinéma, France Télévision, Gaumont, Légende Films, Makayel)
Жанр: Комедия
Продолжительность: 01:36:56
Перевод: Профессиональный (полное дублирование) [Пифагор]
Оригинальная дорожка: Нет
Cубтитры: Нет
Режиссер: Микаэль Юн / Michael Youn
В ролях: Хосе Гарсия, Микаэль Юн, Изабель Фунаро, Эри Абиттан, Жером Коммандёр, Венсан Москато, Жан Франсуа Кэйри, Франк Гастамбид, Мусса Мааскри, Хамид Наджах
Описание: Сатирическая комедия. В вымышленной арабской стране Табулистан живут два друга. Им очень хочется, чтобы об их замечательной стране узнал весь мир. Лучшим способом прославить свою страну они выбирают зрелищное, но очень противозаконное представление. Заручившись поддержкой президента Табулистана, герои отправляются к своей цели - в Париж, чтобы взорвать Эйфелеву башню. «Да здравствует Франция!» - второй фильм в качестве режиссера популярного актера Микаэля Юна.
За исходник спасибо
Качество: HDRip (Рип с BDRip 1080p)
Формат: MP4
Видео кодек: XviD
Аудио кодек: AAC
Видео: 480x200 (2.35:1), 450 kbps, 24.000 fps
Аудио: Русский, 2 ch, 48 kHz, 128 kbps [Dub, Пифагор]
General
Complete name : [VIDEO] Vive.la.France.2013.HDRip.XviD.480x(semen_52-TNC).mp4
Format : MPEG-4
Format profile : Base Media / Version 2
Codec ID : mp42
File size : 402 MiB
Duration : 1h 36mn
Overall bit rate mode : Variable
Overall bit rate : 580 Kbps
Encoded date : UTC 2014-01-21 16:01:02
Tagged date : UTC 2014-01-21 16:01:02

Video
ID : 201
Format : MPEG-4 Visual
Format profile : Advanced [email protected]
Format settings, BVOP : No
Format settings, QPel : Yes
Format settings, GMC : No warppoints
Format settings, Matrix : Default (H.263)
Codec ID : 20
Duration : 1h 36mn
Bit rate mode : Variable
Bit rate : 449 Kbps
Maximum bit rate : 3 372 Kbps
Width : 480 pixels
Height : 200 pixels
Display aspect ratio : 2.40:1
Frame rate mode : Constant
Frame rate : 24.000 fps
Color space : YUV
Chroma subsampling : 4:2:0
Bit depth : 8 bits
Scan type : Progressive
Compression mode : Lossy
Bits/(Pixel*Frame) : 0.195
Stream size : 312 MiB (77%)
Writing library : XviD 73
Encoded date : UTC 2014-01-21 16:01:02
Tagged date : UTC 2014-01-21 16:01:08

Audio
ID : 101
Format : AAC
Format/Info : Advanced Audio Codec
Format profile : LC
Codec ID : 40
Duration : 1h 36mn
Bit rate mode : Variable
Bit rate : 128 Kbps
Maximum bit rate : 138 Kbps
Channel(s) : 2 channels
Channel positions : Front: L R
Sampling rate : 48.0 KHz
Compression mode : Lossy
Stream size : 88.7 MiB (22%)
Title : Dub
Language : Russian
Encoded date : UTC 2014-01-21 16:01:06
Tagged date : UTC 2014-01-21 16:01:08


Трекер:  [ 22-Янв-2014 19:55 ]

  

Скачать .torrent

Размер .torrent файла 16 KB


Размер: 402 MB
Хэш (hash) релиза: d9157e0c875579f33930f817ee70be8f4d37fae4

Еще никто не оставлял запись к записи скачать торрент [VIDEO] Да здравствует Франция! Vive la France . Будь первым!

!Обратная связь