cFosSpeed | Chapter 361 | Каран Сони

Скачать через торрент [MULT] Швейцарская семья Робинзонов Swiss Family Robinson бесплатно русская версия torrent активатор

Статистика раздачи
Размер:  371 MB   |    Зарегистрирован:  4 года 6 месяцев   |    .torrent скачан:  27 раз   |   
Раздают:  1  
   
загрузка...
 
Автор Сообщение

Galfimbul

avatar Galfimbul


Швейцарская семья Робинзонов / Swiss Family Robinson

Год выпуска: 1996

Страна: Канада
Жанр: приключения
Продолжительность: 00:45:36
Перевод: Профессиональный (многоголосый закадровый)
Cубтитры: нет

Режиссер: Лаура Шепард / Laura Shepherd
В ролях: Стивен Коул, Сью Робертсон и другие.

Описание: Потерпевшая кораблекрушение и выброшенная на берег необитаемого острова, семья Робинзонов использует все свое воображение и фантазию, чтобы превратить близлежащие заросли в идеальный островной дом. Но что случится, когда банда пиратов-головорезов решит разрушить их импровизированный рай?

Доп. информация: Детская адаптация классического романа Йохана Дэвида Уисса «Швейцарская семья Робинзонов».

Качество: TVRip
Формат: MP4
Видео кодек: H.264
Аудио кодек: AAC
Видео: H.264, 640x480, 4:3, 1 006 Kbps, 25.000 fps
Аудио: AAC, 128 Kbps, 48.0 KHz, 2 ch

Сэмпл: http://multi-up.com/938563
GeneralComplete name : K:\Видео\Мультфильмы\Швейцарская семья Робинзонов.mp4Format : MPEG-4Format profile : Base MediaCodec ID : isomFile size : 371 MiBDuration : 45mn 35sOverall bit rate mode : VariableOverall bit rate : 1 138 KbpsWriting application : Lavf52.31.0

VideoID : 1Format : AVCFormat/Info : Advanced Video CodecFormat profile : [email protected] settings, CABAC : YesFormat settings, ReFrames : 5 framesFormat settings, GOP : N=1Codec ID : avc1Codec ID/Info : Advanced Video CodingDuration : 45mn 35sDuration_FirstFrame : -80msBit rate : 1 006 KbpsWidth : 640 pixelsHeight : 480 pixelsDisplay aspect ratio : 4:3Frame rate mode : VariableFrame rate : 25.000 fpsMinimum frame rate : 8.333 fpsMaximum frame rate : 25.000 fpsColor space : YUVChroma subsampling : 4:2:0Bit depth : 8 bitsScan type : ProgressiveBits/(Pixel*Frame) : 0.131Stream size : 328 MiB (88%)Language : RussianTagged date : UTC 2011-05-04 07:40:45

AudioID : 2Format : AACFormat/Info : Advanced Audio CodecFormat profile : LCCodec ID : 40Duration : 45mn 35sBit rate mode : VariableBit rate : 128 KbpsChannel(s) : 2 channelsChannel positions : Front: L RSampling rate : 48.0 KHzCompression mode : LossyDelay relative to video : 160msStream size : 41.7 MiB (11%)Language : RussianTagged date : UTC 2011-05-04 07:40:45


Трекер:  [ 09-Янв-2014 20:03 ]

  

Скачать .torrent

Размер .torrent файла 15 KB


Размер: 371 MB
Хэш (hash) релиза: b6da9d74883b811c6b2f81eea7472d23df818f32

Еще никто не оставлял запись к записи скачать торрент [MULT] Швейцарская семья Робинзонов Swiss Family Robinson . Будь первым!

!Обратная связь