Altair Hyperworks v13.0.110 (x64) | Télécharger Part 2 | Come To Play

Скачать через торрент [SERIAL] Скандал Scandal бесплатно русская версия torrent активатор

Статистика раздачи
Размер:  5.55 GB   |    Зарегистрирован:  4 года 6 месяцев   |    .torrent скачан:  34 раза   |   
Раздают:  1  
   
загрузка...
 
Автор Сообщение

Galfimbul

avatar Galfimbul


Скандал / Scandal

Год выпуска: 2012

Страна: США
Жанр: драма
Продолжительность: 00:43:00
Перевод: Профессиональный (многоголосый закадровый) FoxLife
Cубтитры: нет

Режиссер: Том Верика / Tom Verica, Стив Робин / Steve Robin, Эллисон Лидди / Allison Liddi-Brown, Ма
В ролях: Керри Вашингтон (Olivia Pope), Коламбус Шорт (Harrison Wright), Дэрби Стэнчфилд (Abby Whelan), Кэти Лоус (Quinn Perkins), Гильермо Диас (Huck), Джефф Перри (Cyrus Beene), Джошуа Малина (David Rosen), Беллами Янг (Mellie Grant), Тони Голдуин (President Fitzgerald Grant), Дэн Букатинский (James Novak), Грегг Генри (Hollis Doyle), Скотт Фоули (Jake Ballard)
Описание: Специалист по связям с общественностью Оливия Поуп, ранее работавшая на президента США, создает свое антикризисное агенство, цель которого - устранять проблемы высокопоставленных клиентов до того, как они станут всеобщим достоянием.
P.S: В основу характера главной героини Оливии Поуп положена история жизни и карьеры Джуди Смит, бывшего руководителя пресс-центра Джорджа Буша, которая также является со-продюсером шоу.
Качество: WEB-DLRip
Формат: MP4
Видео кодек: H.264
Аудио кодек: AAC
Видео: MPEG4 Video (H264); 480x272 (16:9); 449 kbps; 24.00fps
Аудио: AAC 44100Hz stereo 126 kbps
ОбщееПолное имя : ...\Scandal [480x272, mp4]\Scandal [season 1, 480x272, mp4]\scandal.s01e01.mp4Формат : MPEG-4Профиль формата : Base Media / Version 2Идентификатор кодека : mp42Размер файла : 188 МбайтПродолжительность : 45 м.Режим общего битрейта : ПеременныйОбщий поток : 576 Кбит/секДата кодирования : UTC 2013-12-07 03:21:52Дата пометки : UTC 2013-12-07 03:21:59Программа кодирования : mp4creator 1.4.4

ВидеоИдентификатор : 1Формат : AVCФормат/Информация : Advanced Video CodecПрофиль формата : [email protected]Параметр CABAC формата : НетПараметр ReFrames формата : 2 кадраИдентификатор кодека : avc1Идентификатор кодека/Информация : Advanced Video CodingПродолжительность : 45 м.Вид битрейта : ПеременныйБитрейт : 448 Кбит/секШирина : 480 пикселейВысота : 272 пикселяСоотношение сторон : 16:9Режим частоты кадров : ПостоянныйЧастота кадров : 24,000 кадра/секЦветовое пространство : YUVСубдискретизация насыщенности : 4:2:0Битовая глубина : 8 битТип развёртки : ПрогрессивнаяБит/(Пиксели*Кадры) : 0.143Размер потока : 146 Мбайт (78%)Язык : EnglishДата кодирования : UTC 2013-12-07 03:21:52Дата пометки : UTC 2013-12-07 03:21:53

АудиоИдентификатор : 2Формат : AACФормат/Информация : Advanced Audio CodecПрофиль формата : LCИдентификатор кодека : 40Продолжительность : 45 м.Продолжительность оригинала : 45 м.Вид битрейта : ПеременныйБитрейт : 126 Кбит/секМаксимальный битрейт : 261 Кбит/секКаналы : 2 каналаРасположение каналов : Front: L RЧастота : 44,1 КГцМетод сжатия : С потерямиРазмер потока : 41,0 Мбайт (22%)Размер потока оригинала : 41,0 Мбайт (22%)Язык : EnglishДата кодирования : UTC 2013-12-07 03:21:54Дата пометки : UTC 2013-12-07 03:21:59


Трекер:  [ 05-Янв-2014 15:20 ]

  

Скачать .torrent

Размер .torrent файла 17 KB


Размер: 5.55 GB
Хэш (hash) релиза: a20dca858bf125c26f76a6d4bc429dc9fbf37885

Еще никто не оставлял запись к записи скачать торрент [SERIAL] Скандал Scandal . Будь первым!

!Обратная связь