Hakkenden: Touhou Hakken Ibun Subtitle Indonesia | Комедия | Vampyr [Update 1] (2018) PC | RePack от xatab

Скачать через торрент [ATV3] Андроид App бесплатно русская версия torrent активатор

Статистика раздачи
Размер:  4.85 GB   |    Зарегистрирован:  4 года 6 месяцев   |    .torrent скачан:  40 раз   |   
Раздают:  1  
   
загрузка...
 
Автор Сообщение

Galfimbul

avatar Galfimbul


Андроид / App
-

4.816 / 10 5.70 / 10
Год выпуска: 2013
Страна: Нидерланды
Жанр: триллер
Продолжительность: 01:18:43

Перевод: Профессиональный (дублированный)
Оригинальная аудиодорожка: Нет
Режиссёр: Бобо Боерманс
Сценарий: Роберт Артур Джэнсен
Продюсер: Кес Абрахамс, Робин Де Левита, Эдвард ван ''т Вут
Оператор: Эзра Реверда
Композитор: Херман Виткам
Художник: Паула Лус, Мэрион Бут, Мариан ван Ниувенхёйзен
Монтаж: Брайан Энт
В ролях: Ханна Хекстра, Роберт де Хуг, Исис Каболе, Маттис ван де Санде Бакхуйзен, Марк ван Эувен, Лиза Сипс, Ерун Шпиценбергер, Алекс Хендрикс, Патрик Мартенс, Гиги Равелли

Бюджет: €1 500 000
Сборы в России: $313 990

Мировая премьера: 28 марта 2013
Премьера (РФ): 10 октября 2013, «Экспонента»

Релиз на DVD: 16 декабря 2013, Новый Диск»
Релиз на Blu-Ray: 1 января 2014, Новый Диск»

Описание: Симпатичная студентка Анна просыпается после вечеринки и обнаруживает на своем смартфоне загадочное приложение «Айрис»… Активируя приложение, Анна запускает головокружительную и трагическую череду событий в жизни своих друзей и знакомых. Кто за этим стоит? …
Качество исходника: BDRemux
Качество: BDRip
Тип: HD (1080p)
Контейнер: M4V
Видео: H.264, 1920x800, 2.40:1, 8 000 Kbps, 23.976 fps

Аудио 1: Русский/Профессиональный (дублированный) , AAC / 2.0 / 172 Kbps / 48.0 KHz
Аудио 2: Русский/Профессиональный (дублированный) , AC-3 / 5.1 / 640 Kbps / 48.0 KHz
Первый фильм, который демонстрируется одновременно на двух экранах (экране кинотеатра и экране смартфона зрителя). Осуществляется это при помощи приложения, имеющего голосовое управление, которое в процессе просмотра фильма позволяет отображать на экране смартфона дополнительные изображения, истории и клипы (приложение работает только для фильма с английской озвучкой).
Ссылка на приложение в Google Play Market
Sort Name:  App
XID: Apple:vendor_id:2013-718674
contentID: 718674
Screenwriters: Роберт Артур Джэнсен
Producers: Кес Абрахамс, Робин Де Левита, Эдвард ван \''т Вут
Director: Бобо Боерманс
Cast: Ханна Хекстра, Роберт де Хуг, Исис Каболе, Маттис ван де Санде Бакхуйзен, Марк ван Эувен, Лиза Сипс, Ерун Шпиценбергер, Алекс Хендрикс, Патрик Мартенс
Rating: 0
Long Description: Симпатичная студентка Анна просыпается после вечеринки и обнаруживает на своем смартфоне загадочное приложение \"Айрис\"... Активируя приложение, Анна запускает головокружительную и трагическую череду событий в жизни своих друзей и знакомых. Кто за этим стоит? ...
Description: Симпатичная студентка Анна просыпается после вечеринки и обнаруживает на своем смартфоне загадочное приложение \"Айрис\"...
Release Date: 2013-03-28T16:00:00Z
Genre: Thriller
Artist: Bobby Boermans
Name: App
General
Complete name                            : /Users/imac/HandBrake/App (1080p HD).m4v
Format                                   : MPEG-4
Codec ID                                 : M4V
File size                                : 4.85 GiB
Duration                                 : 1h 18mn
Overall bit rate mode                    : Variable
Overall bit rate                         : 8 813 Kbps
Movie name                               : App
Performer                                : Bobby Boermans
Genre                                    : Thriller
Recorded date                            : UTC 2013-03-28 16:00:00
Encoded date                             : UTC 2013-12-28 12:29:43
Tagged date                              : UTC 2013-12-28 12:41:57
Cover                                    : Yes
sonm                                     :  App
desc                                     : Симпатичная студентка Анна просыпается после вечеринки и обнаруживает на своем смартфоне загадочное приложение \"Айрис\"...
ldes                                     : Симпатичная студентка Анна просыпается после вечеринки и обнаруживает на своем смартфоне загадочное приложение \"Айрис\"... Активируя приложение, Анна запускает головокружительную и трагическую череду событий в жизни своих друзей и знакомых. Кто за этим стоит? ...
hdvd                                     : 2
stik                                     : 9
rtng                                     : 0
cnID                                     : 718674
xid                                      : Apple:vendor_id:2013-718674
iTunEXTC                                 : mpaa|Unrated|???|
iTunMOVI                                 : <?xml version=\"1.0\" encoding=\"UTF-8\"?> / <!DOCTYPE plist PUBLIC \"-//Apple//DTD PLIST 1.0//EN\" \"http://www.apple.com/DTDs/PropertyList-1.0.dtd\"> / <plist version=\"1.0\"> / <dict> /  <key>cast</key> /  <array> /   <dict> /    <key>name</key> /    <string>Ханна Хекстра</string> /   </dict> /   <dict> /    <key>name</key> /    <string>Роберт де Хуг</string> /   </dict> /   <dict> /    <key>name</key> /    <string>Исис Каболе</string> /   </dict> /   <dict> /    <key>name</key> /    <string>Маттис ван де Санде Бакхуйзен</string> /   </dict> /   <dict> /    <key>name</key> /    <string>Марк ван Эувен</string> /   </dict> /   <dict> /    <key>name</key> /    <string>Лиза Сипс</string> /   </dict> /   <dict> /    <key>name</key> /    <string>Ерун Шпиценбергер</string> /   </dict> /   <dict> /    <key>name</key> /    <string>Алекс Хендрикс</string> /   </dict> /   <dict> /    <key>name</key> /    <string>Патрик Мартенс</string> /   </dict> /  </array> /  <key>directors</key> /  <array> /   <dict> /    <key>name</key> /    <string>Бобо Боерманс</string> /   </dict> /  </array> /  <key>producers</key> /  <array> /   <dict> /    <key>name</key> /    <string>Кес Абрахамс</string> /   </dict> /   <dict> /    <key>name</key> /    <string>Робин Де Левита</string> /   </dict> /   <dict> /    <key>name</key> /    <string>Эдвард ван \''т Вут</string> /   </dict> /  </array> /  <key>screenwriters</key> /  <array> /   <dict> /    <key>name</key> /    <string>Роберт Артур Джэнсен</string> /   </dict> /  </array> / </dict> / </plist>

Video #1
ID                                       : 1
Format                                   : AVC
Format/Info                              : Advanced Video Codec
Format profile                           : [email protected]
Format settings, CABAC                   : Yes
Format settings, ReFrames                : 4 frames
Codec ID                                 : avc1
Codec ID/Info                            : Advanced Video Coding
Duration                                 : 1h 18mn
Source duration                          : 1h 18mn
Bit rate mode                            : Variable
Bit rate                                 : 8 000 Kbps
Width                                    : 1 920 pixels
Height                                   : 800 pixels
Display aspect ratio                     : 2.40:1
Frame rate mode                          : Variable
Frame rate                               : 23.976 fps
Minimum frame rate                       : 23.810 fps
Maximum frame rate                       : 90 000.000 fps
Color space                              : YUV
Chroma subsampling                       : 4:2:0
Bit depth                                : 8 bits
Scan type                                : Progressive
Bits/(Pixel*Frame)                       : 0.217
Stream size                              : 4.40 GiB (91%)
Source stream size                       : 4.40 GiB (91%)
Writing library                          : x264 core 130 r2273 b3065e6
Encoding settings                        : cabac=1 / ref=4 / deblock=1:0:0 / analyse=0x3:0x133 / me=umh / subme=10 / psy=1 / psy_rd=1.00:0.00 / mixed_ref=1 / me_range=32 / chroma_me=1 / trellis=2 / 8x8dct=1 / cqm=0 / deadzone=21,11 / fast_pskip=1 / chroma_qp_offset=-2 / threads=12 / lookahead_threads=1 / sliced_threads=0 / nr=0 / decimate=1 / interlaced=0 / bluray_compat=0 / constrained_intra=0 / bframes=4 / b_pyramid=2 / b_adapt=2 / b_bias=0 / direct=3 / weightb=1 / open_gop=0 / weightp=2 / keyint=240 / keyint_min=24 / scenecut=40 / intra_refresh=0 / rc_lookahead=40 / rc=2pass / mbtree=0 / bitrate=8000 / ratetol=1.0 / qcomp=0.60 / qpmin=0 / qpmax=69 / qpstep=4 / cplxblur=20.0 / qblur=0.5 / vbv_maxrate=25000 / vbv_bufsize=25000 / nal_hrd=none / ip_ratio=1.40 / pb_ratio=1.30 / aq=1:1.00
Language                                 : English
Encoded date                             : UTC 2013-12-28 12:29:43
Tagged date                              : UTC 2013-12-28 12:32:20
Color primaries                          : BT.709-5, BT.1361, IEC 61966-2-4, SMPTE RP177
Transfer characteristics                 : BT.709-5, BT.1361
Matrix coefficients                      : BT.709-5, BT.1361, IEC 61966-2-4 709, SMPTE RP177

Video #2
ID                                       : 4
Format                                   : JPEG
Codec ID                                 : jpeg
Duration                                 : 1h 18mn
Bit rate mode                            : Variable
Bit rate                                 : 607 bps
Width                                    : 640 pixels
Height                                   : 270 pixels
Display aspect ratio                     : 2.40:1
Frame rate mode                          : Variable
Frame rate                               : 0.002 fps
Minimum frame rate                       : 0.001 fps
Maximum frame rate                       : 0.018 fps
Color space                              : YUV
Chroma subsampling                       : 4:2:0
Bit depth                                : 8 bits
Compression mode                         : Lossy
Bits/(Pixel*Frame)                       : 1.756
Stream size                              : 333 KiB (0%)
Language                                 : English
Encoded date                             : UTC 2013-12-28 12:29:43
Tagged date                              : UTC 2013-12-28 12:29:43

Audio #1
ID                                       : 2
Format                                   : AAC
Format/Info                              : Advanced Audio Codec
Format profile                           : LC
Codec ID                                 : 40
Duration                                 : 1h 18mn
Bit rate mode                            : Variable
Bit rate                                 : 172 Kbps
Maximum bit rate                         : 281 Kbps
Channel(s)                               : 2 channels
Channel positions                        : Front: L R
Sampling rate                            : 48.0 KHz
Compression mode                         : Lossy
Stream size                              : 96.9 MiB (2%)
Language                                 : Russian
Encoded date                             : UTC 2013-12-28 12:29:43
Tagged date                              : UTC 2013-12-28 12:30:43

Audio #2
ID                                       : 3
Format                                   : AC-3
Format/Info                              : Audio Coding 3
Mode extension                           : CM (complete main)
Format settings, Endianness              : Big
Codec ID                                 : ac-3
Duration                                 : 1h 18mn
Bit rate mode                            : Constant
Bit rate                                 : 640 Kbps
Channel(s)                               : 6 channels
Channel positions                        : Front: L C R, Side: L R, LFE
Sampling rate                            : 48.0 KHz
Bit depth                                : 16 bits
Compression mode                         : Lossy
Stream size                              : 360 MiB (7%)
Language                                 : Russian
Encoded date                             : UTC 2013-12-28 12:29:43
Tagged date                              : UTC 2013-12-28 12:30:21

Text
ID                                       : 5
Format                                   : Apple text
Codec ID                                 : text
Duration                                 : 1h 18mn
Bit rate mode                            : Constant
Bit rate                                 : 0 bps
Stream size                              : 234 Bytes (0%)
Language                                 : English
Encoded date                             : UTC 2013-12-28 12:32:20
Tagged date                              : UTC 2013-12-28 12:32:20

Menu
00:00:00.000                             : 00:00:00.000
00:00:55.680                             : 00:00:55.583
00:09:00.831                             : 00:09:00.666
00:17:41.267                             : 00:17:41.166
00:29:03.573                             : 00:29:03.458
00:37:22.863                             : 00:37:22.708
00:44:48.975                             : 00:44:48.875
00:54:03.904                             : 00:54:03.791
01:06:10.588                             : 01:06:10.500
x264 [info]: frame I:1201  Avg QP:16.05  size:132895  PSNR Mean Y:48.90 U:51.08 V:50.56 Avg:49.42 Global:48.83
x264 [info]: frame P:33868 Avg QP:18.16  size: 63455  PSNR Mean Y:47.50 U:49.73 V:49.02 Avg:47.98 Global:47.10
x264 [info]: frame B:78171 Avg QP:19.73  size: 30841  PSNR Mean Y:46.12 U:48.69 V:47.94 Avg:46.66 Global:45.87
x264 [info]: consecutive B-frames:  6.1%  8.3% 12.7% 38.0% 34.9%
x264 [info]: mb I  I16..4: 16.2% 68.6% 15.2%
x264 [info]: mb P  I16..4:  8.0% 23.9%  2.7%  P16..4: 31.8% 14.3%  6.8%  0.1%  0.0%    skip:12.4%
x264 [info]: mb B  I16..4:  1.7%  3.1%  0.3%  B16..8: 39.1% 10.7%  2.5%  direct:11.6%  skip:31.0%  L0:42.9% L1:47.4% BI: 9.8%
x264 [info]: 8x8 transform intra:67.1% inter:69.1%
x264 [info]: direct mvs  spatial:97.3% temporal:2.7%
x264 [info]: coded y,uvDC,uvAC intra: 69.7% 84.9% 67.0% inter: 33.6% 41.2% 15.4%
x264 [info]: i16 v,h,dc,p: 53% 15% 14% 18%
x264 [info]: i8 v,h,dc,ddl,ddr,vr,hd,vl,hu: 12% 10% 14%  9% 11% 11% 11% 11% 11%
x264 [info]: i4 v,h,dc,ddl,ddr,vr,hd,vl,hu: 18% 14% 11%  6% 11% 11% 11%  8%  9%
x264 [info]: i8c dc,h,v,p: 48% 19% 19% 13%
x264 [info]: Weighted P-Frames: Y:1.8% UV:1.1%
x264 [info]: ref P L0: 54.3% 10.5% 23.4% 10.1%  1.6%  0.0%
x264 [info]: ref B L0: 83.5% 13.0%  3.5%
x264 [info]: ref B L1: 91.8%  8.2%
x264 [info]: SSIM Mean Y:0.9846966 (18.152db)
x264 [info]: PSNR Mean Y:46.560 U:49.022 V:48.290 Avg:47.088 Global:46.226 kb/s:7994.08



Трекер:  [ 28-Дек-2013 17:00 ]

  

Скачать .torrent

Размер .torrent файла 49 KB


Размер: 4.85 GB
Хэш (hash) релиза: 1e92ffa77eec88a1df33eb831c7b03f64df56cb8

Еще никто не оставлял запись к записи скачать торрент [ATV3] Андроид App . Будь первым!

!Обратная связь