下载 APK(9.4 MB ) | The Dark Knight Ri.. (2012) | Anna Maria - Eine Frau geht ihren Weg

Скачать через торрент [VIDEO] Дона Флор и ее два мужа Dona Flor e Seus Dois Maridos бесплатно русская версия torrent активатор

Статистика раздачи
Размер:  506 MB   |    Зарегистрирован:  4 года 6 месяцев   |    .torrent скачан:  46 раз   |   
Раздают:  1  
   
загрузка...
 
Автор Сообщение

Galfimbul

avatar Galfimbul


Дона Флор и ее два мужа / Dona Flor e Seus Dois Maridos

Год выпуска: 1976
Страна: Бразилия
Жанр: Комедия
Продолжительность: 01:57:32
Перевод: Профессиональный (многоголосый закадровый)
Cубтитры: нет
Режиссер: Бруно Баррето / Bruno Barreto
В ролях:
Соня Брага,
Жозе Уилкер,
Мауро Мендонка,
Динора Брилланти,
Нелсон Ксавье,
Артур Коста Филхо,
Руи Резенде,
Марио Гушмао
Описание: Средь карнавального веселья красавицу дону Флор поджидало горе: ее беспутный муж нежданно-негадано отправился к праотцам. Смирившись с утратой, вдова пытается устроить свою жизнь и, даже, повторно выходит замуж. Но тут ее первый муженек возвращается с того света... И начинается веселье.
Остроумная и предельно эротичная, умело балансирующая на грани реальности и мечты, странная комедия "Дона Флор и ее два мужа" принесла своим создателям всемирную известность и вот уже более трех десятков лет пользуется заслуженным успехом у зрителей во всем мире.
Качество: DVDRip
Формат: AVI
Видео кодек: XviD
Аудио кодек: MP3
Видео: XviD 480x272; 23.976 fps; ~ 461 Kbps; 0.14Bits/Pixel
Аудио: Mp3 48 kHz, 2 ch, 128 kbps
GeneralComplete name : C:\Дона Флор и ее два мужа 480x _Эталон67.aviFormat : AVIFormat/Info : Audio Video InterleaveFile size : 506 MiBDuration : 1h 57mnOverall bit rate mode : VariableOverall bit rate : 602 KbpsWriting application : VirtualDubMod 1.5.10.3 | www.virtualdub-fr.org || (build 2550/release)Writing library : VirtualDubMod build 2550/release

VideoID : 0Format : MPEG-4 VisualFormat profile : Advanced [email protected] settings, BVOP : 1Format settings, QPel : NoFormat settings, GMC : No warppointsFormat settings, Matrix : Default (H.263)Codec ID : XVIDCodec ID/Hint : XviDDuration : 1h 57mnBit rate : 461 KbpsWidth : 480 pixelsHeight : 272 pixelsDisplay aspect ratio : 16:9Frame rate : 23.976 fpsColor space : YUVChroma subsampling : 4:2:0Bit depth : 8 bitsScan type : ProgressiveCompression mode : LossyBits/(Pixel*Frame) : 0.147Stream size : 388 MiB (77%)Writing library : XviD 1.2.1 (UTC 2008-12-04)

AudioID : 1Format : MPEG AudioFormat version : Version 1Format profile : Layer 3Codec ID : 55Codec ID/Hint : MP3Duration : 1h 57mnBit rate mode : VariableBit rate : 128 KbpsChannel(s) : 2 channelsSampling rate : 48.0 KHzCompression mode : LossyStream size : 108 MiB (21%)Alignment : Aligned on interleavesInterleave, duration : 24 ms (0.58 video frame)Interleave, preload duration : 486 msWriting library : LAME3.98rEncoding settings : -m s -V 4 -q 2 -lowpass 17 -b 128


Трекер:  [ 28-Дек-2013 16:19 ]

  

Скачать .torrent

Размер .torrent файла 40 KB


Размер: 506 MB
Хэш (hash) релиза: 66bb98a53912f0cdc1712fd24dd44f041464357d

Еще никто не оставлял запись к записи скачать торрент [VIDEO] Дона Флор и ее два мужа Dona Flor e Seus Dois Maridos . Будь первым!

!Обратная связь