I Will Be Glad | Showtime | морозные узоры

Скачать через торрент [SERIAL] Особо Опасные Преступления Major Crimes бесплатно русская версия torrent активатор

Статистика раздачи
Размер:  1.69 GB   |    Зарегистрирован:  4 года 6 месяцев   |    .torrent скачан:  28 раз   |   
Раздают:  1  
   
загрузка...
 
Автор Сообщение

Galfimbul

avatar Galfimbul


Особо Опасные Преступления / Major Crimes

Год выпуска: 2012

Страна: США
Жанр: детектив
Продолжительность: 00:44:00
Перевод: Любительский (двухголосый закадровый) DreamRecords
Cубтитры: нет

Режиссер: Майкл М. Робин / Michael M. Robin
В ролях: Mary McDonnell, G. W. Bailey, Tony Denison, Michael Paul Chan, Raymond Cruz
Описание: Продолжение сериала Ищейка. После увольнения Бренды Ли Джонсон руководство Отделом Ососбо Опасных преступлений полиции Лос-Анджелеса берет в свои руки капитан Рэйдор. Однако ей предстоит работать в команде, котроая заранее испытывает к ней антипатию, ведь антипатию к ней всегда испытывала шеф Джонсон.

Качество: HDTVRip
Формат: MP4
Видео кодек: XviD
Аудио кодек: AAC
Видео: MPEG4 Video (H264); 480x270 (16:9); 449 kbps; 24.00fps
Аудио: AAC 44100Hz stereo 126 kbps
ОбщееПолное имя : E:\Major Crimes [480x270, mp4]\Major Crimes [season 1, 480x270, mp4]\Major.Crimes.S01E01.mp4Формат : MPEG-4Профиль формата : Base MediaИдентификатор кодека : isomРазмер файла : 177 МбайтПродолжительность : 42 м.Общий поток : 579 Кбит/секПрограмма кодирования : Lavf54.6.100

ВидеоИдентификатор : 1Формат : AVCФормат/Информация : Advanced Video CodecПрофиль формата : [email protected]Параметр CABAC формата : НетПараметр ReFrames формата : 2 кадраИдентификатор кодека : avc1Идентификатор кодека/Информация : Advanced Video CodingПродолжительность : 42 м.Битрейт : 449 Кбит/секШирина : 480 пикселейВысота : 270 пикселейСоотношение сторон : 16:9Соотношение сторон в оригинале : 16:9Режим частоты кадров : ПостоянныйЧастота кадров : 24,000 кадра/секЦветовое пространство : YUVСубдискретизация насыщенности : 4:2:0Битовая глубина : 8 битТип развёртки : ПрогрессивнаяБит/(Пиксели*Кадры) : 0.144Размер потока : 137 Мбайт (77%)Библиотека кодирования : x264 core 119Настройки программы : cabac=0 / ref=2 / deblock=1:0:0 / analyse=0x1:0x111 / me=umh / subme=6 / psy=1 / psy_rd=1.00:0.00 / mixed_ref=1 / me_range=16 / chroma_me=1 / trellis=0 / 8x8dct=0 / cqm=0 / deadzone=21,11 / fast_pskip=1 / chroma_qp_offset=-2 / threads=6 / sliced_threads=0 / nr=0 / decimate=1 / interlaced=0 / bluray_compat=0 / constrained_intra=0 / bframes=0 / weightp=0 / keyint=250 / keyint_min=24 / scenecut=40 / intra_refresh=0 / rc_lookahead=40 / rc=abr / mbtree=1 / bitrate=449 / ratetol=1.0 / qcomp=0.60 / qpmin=0 / qpmax=69 / qpstep=4 / ip_ratio=1.40 / aq=1:1.00

АудиоИдентификатор : 2Формат : AACФормат/Информация : Advanced Audio CodecПрофиль формата : LCИдентификатор кодека : 40Продолжительность : 42 м.Вид битрейта : ПостоянныйБитрейт : 128 Кбит/секКаналы : 2 каналаРасположение каналов : Front: L RЧастота : 44,1 КГцМетод сжатия : С потерямиРазмер потока : 39,2 Мбайт (22%)


Трекер:  [ 28-Дек-2013 11:22 ]

  

Скачать .torrent

Размер .torrent файла 18 KB


Размер: 1.69 GB
Хэш (hash) релиза: 1ccc48ee2c1de88ff29685948b0f3ac9116e3439

Еще никто не оставлял запись к записи скачать торрент [SERIAL] Особо Опасные Преступления Major Crimes . Будь первым!

!Обратная связь