Campeones (2018) | - Dont Look at Me That Way 2015 DVDRip x264-BiPOLAR | Beyond Westworld

Скачать через торрент [ANIME] Берсерк: Золотой век Berserk: Ougon Jidai Hen бесплатно русская версия torrent активатор

Статистика раздачи
Размер:  3.29 GB   |    Зарегистрирован:  4 года 7 месяцев   |    .torrent скачан:  64 раза   |   
Раздают:  1  
   
загрузка...
 
Автор Сообщение

Galfimbul

avatar Galfimbul



Берсерк: Золотой век
Berserk: Ougon Jidai Hen

Год выпуска: 2012, 2013
Страна: Япония
Студия: Studio 4°C
Жанр: Приключения, фэнтези, драма
Продолжительность: 01:16:49, 01:32:45, 01:47:47
Режиссер: Кубоока Тосиюки
Фильм I. Бехерит Властителя
Haou no Tamago

Год выпуска: 2012
Страна: Япония
Жанр: Приключения, фэнтези, драма
Продолжительность: 01:16:49
Озвучка 1: Профессиональный (полное дублирование) [Reanimedia]
Озвучка 2: Одноголосый закадровый JAM (Animedia)
Оригинальная дорожка: Есть
Cубтитры 1: Russian вшитые форсированные (на надписи) [Reanimedia]
Cубтитры 2: Russian вшитые полные (на надписи) [Reanimedia]
Режиссер: Кубоока Тосиюки
В ролях: Хироаки Иванага, Сакурай Такахиро, Тоа Юкинари, Юки Кадзи, Ёсиро Мацумото, Минако Котобуки, Такахиро Фудзивара, Яо Кадзуки, Аки Тоёсаки, Кэнта Миякэ
Описание: Наемник Гатс делает первые шаги по пути поиска смысла своего существования. Делает их на поле боя, где, если верить старой поговорке, нельзя доверять даже собственным родителям, где каждый случайный камень под ногами грозит обернуться надгробием. И чем дальше война – тем меньше знакомых лиц перед глазами.

Побежденный амбициозным Гриффитом, предводителем отряда Ястребов, Гатс прибивается под его крыло, одновременно находит в нем друга и определяется с целью жизни. А вот кого «добывает» сам Гриффит в лице Гатса – верного друга или еще один верный клинок – с уверенностью сказать не удается.

Качество: BDRip (Рип с BD Remux 1080p)
Формат: MP4
Видео кодек: H.264
Аудио кодек: AAC
Видео: 800х336 (2.40:1), 1400 kbps, 23.976 fps
Аудио №1: Russian, 2 ch, 48 kHz, 128 kbps [Dub, Reanimedia]
Аудио №2: Russian, 2 ch, 48 kHz, 128 kbps [VO, JAM (Animedia)]
Аудио №3: Japanese, 2 ch, 48 kHz, 128 kbps [Original]
Киноцикл является новой крупнобюджетной экранизацией одноименного комикса (манги) Кэнтаро Миуры, выходящего с 1990 года.
General
Complete name : Berserk.Movie.Golden.Age.Arc.BDRip.x264.800x(semen_52-TNC)\[ANIME] Berserk.Movie01.The.Egg.of.the.King.2012.BDRip.x264.800x(semen_52-TNC).mp4
Format : MPEG-4
Format profile : Base Media
Codec ID : isom
File size : 989 MiB
Duration : 1h 17mn
Overall bit rate mode : Variable
Overall bit rate : 1 792 Kbps
Encoded date : UTC 2013-12-26 08:58:18
Tagged date : UTC 2013-12-26 08:59:44
Writing application : MkvToMp4 version: 0.224 (x64)
Comment : Rip by semen_52-TNC
stik : 9

Video
ID : 1
Format : AVC
Format/Info : Advanced Video Codec
Format profile : [email protected]
Format settings, CABAC : Yes
Format settings, ReFrames : 8 frames
Codec ID : avc1
Codec ID/Info : Advanced Video Coding
Duration : 1h 16mn
Bit rate : 1 400 Kbps
Maximum bit rate : 9 102 Kbps
Width : 800 pixels
Height : 336 pixels
Display aspect ratio : 2.40:1
Frame rate mode : Constant
Frame rate : 23.976 fps
Color space : YUV
Chroma subsampling : 4:2:0
Bit depth : 8 bits
Scan type : Progressive
Bits/(Pixel*Frame) : 0.217
Stream size : 769 MiB (78%)
Writing library : x264 core 130 r2273 b3065e6
Encoding settings : cabac=1 / ref=8 / deblock=1:-2:-1 / analyse=0x3:0x133 / me=umh / subme=9 / psy=1 / psy_rd=0.40:0.00 / mixed_ref=1 / me_range=16 / chroma_me=1 / trellis=2 / 8x8dct=1 / cqm=0 / deadzone=21,11 / fast_pskip=0 / chroma_qp_offset=-2 / threads=6 / lookahead_threads=1 / sliced_threads=0 / nr=0 / decimate=1 / interlaced=0 / bluray_compat=0 / constrained_intra=0 / bframes=3 / b_pyramid=2 / b_adapt=2 / b_bias=0 / direct=3 / weightb=1 / open_gop=0 / weightp=2 / keyint=250 / keyint_min=25 / scenecut=40 / intra_refresh=0 / rc_lookahead=90 / rc=2pass / mbtree=1 / bitrate=1400 / ratetol=1.0 / qcomp=0.60 / qpmin=0 / qpmax=69 / qpstep=4 / cplxblur=20.0 / qblur=0.5 / ip_ratio=1.40 / aq=1:0.60
Language : English
Encoded date : UTC 2013-12-26 08:58:18
Tagged date : UTC 2013-12-26 08:58:49

Audio #1
ID : 2
Format : AAC
Format/Info : Advanced Audio Codec
Format profile : LC
Codec ID : 40
Duration : 1h 17mn
Bit rate mode : Variable
Bit rate : 128 Kbps
Maximum bit rate : 131 Kbps
Channel(s) : 2 channels
Channel positions : Front: L R
Sampling rate : 48.0 KHz
Compression mode : Lossy
Stream size : 70.6 MiB (7%)
Title : Dub Reanimedia
Language : Russian
Encoded date : UTC 2013-12-26 08:58:37
Tagged date : UTC 2013-12-26 08:58:49

Audio #2
ID : 3
Format : AAC
Format/Info : Advanced Audio Codec
Format profile : LC
Codec ID : 40
Duration : 1h 16mn
Bit rate mode : Variable
Bit rate : 128 Kbps
Maximum bit rate : 135 Kbps
Channel(s) : 2 channels
Channel positions : Front: L R
Sampling rate : 48.0 KHz
Compression mode : Lossy
Stream size : 70.3 MiB (7%)
Title : VO JAM _AniMedia_
Language : Russian
Encoded date : UTC 2013-12-26 08:58:41
Tagged date : UTC 2013-12-26 08:58:49

Audio #3
ID : 4
Format : AAC
Format/Info : Advanced Audio Codec
Format profile : LC
Codec ID : 40
Duration : 1h 16mn
Bit rate mode : Variable
Bit rate : 128 Kbps
Maximum bit rate : 132 Kbps
Channel(s) : 2 channels
Channel positions : Front: L R
Sampling rate : 48.0 KHz
Compression mode : Lossy
Stream size : 70.3 MiB (7%)
Title : Original
Language : Japanese
Encoded date : UTC 2013-12-26 08:58:45
Tagged date : UTC 2013-12-26 08:58:49

Text #1
ID : 5
Format : Timed text
Muxing mode : sbtl
Codec ID : tx3g
Duration : 1h 12mn
Bit rate mode : Variable
Bit rate : 1 bps
Stream size : 301 Bytes (0%)
Title : Forced titles Reanimedia
Language : Russian
Encoded date : UTC 2013-12-26 08:58:49
Tagged date : UTC 2013-12-26 08:58:49

Text #2
ID : 6
Format : Timed text
Muxing mode : sbtl
Codec ID : tx3g
Duration : 1h 12mn
Bit rate mode : Variable
Bit rate : 74 bps
Stream size : 39.1 KiB (0%)
Title : Full Reanimedia
Language : Russian
Encoded date : UTC 2013-12-26 08:58:49
Tagged date : UTC 2013-12-26 08:58:49
Фильм II. Битва за Долдрей
Doldrey Kouryaku

Год выпуска: 2012
Страна: Япония
Жанр: Приключения, фэнтези, драма
Продолжительность: 01:32:45
Озвучка 1: Профессиональный (полное дублирование) [Reanimedia]
Озвучка 2: Одноголосый закадровый JAM (Animedia)
Оригинальная дорожка: Есть
Cубтитры 1: Russian вшитые форсированные (на надписи) [semen_52]
Cубтитры 2: Russian вшитые полные [Shizoidal, Cracknight] (Исходник)
Режиссер: Кубоока Тосиюки
В ролях: Крис Джай Алекс, Кевин Коллинз, Марк Дирайсон, Даг Эрхольц, Такахиро Фудзивара, Хироаки Иванага, Юки Кадзи, Кэрри Керанен, Минако Котобуки, Рикия Кояма
Описание: 100-летняя война королевства Мидланд и империи Тюдор подходит к концу: у стен крепости Долдрей, со взятия которой имперцами и начался «железный век», появляется банда Ястреба. Теперь это не простой отряд наемников, а ударная часть регулярной армии Мидланда.

Несмотря на предельно краткое резюме штаба королевской армии насчет Долдрей – «взять нереально» – «ястребы» полны решимости клинками проложить путь к светлому будущему с балами и пирами. Если занять крепость окажется не под силу даже Гриффиту, возможно, величайшему герою тысячелетия, то вряд ли еще один безумец впоследствии рискнет своими зубами против этого «орешка».

Но в самом ли деле кому-то нужен покой в Мидланде? Ведь даже наследница престола восклицает: «Я одинока, пока в мире властвует мир…»

Качество: BDRip (Рип с BD Remux 1080p)
Формат: MP4
Видео кодек: H.264
Аудио кодек: AAC
Видео: 800х336 (2.40:1), 1400 kbps, 23.976 fps
Аудио №1: Russian, 2 ch, 48 kHz, 128 kbps [Dub, Reanimedia] (Исходник)
Аудио №2: Russian, 2 ch, 48 kHz, 128 kbps [VO, JAM (Animedia)]
Аудио №3: Japanese, 2 ch, 48 kHz, 128 kbps [Original]
Киноцикл является новой крупнобюджетной экранизацией одноименного комикса (манги) Кэнтаро Миуры, выходящего с 1990 года.
General
Complete name : Berserk.Movie.Golden.Age.Arc.BDRip.x264.800x(semen_52-TNC)\[ANIME] Berserk.Movie02.The.Battle.for.Doldrey.2012.BDRip.x264.800x(semen_52-TNC).mp4
Format : MPEG-4
Format profile : Base Media
Codec ID : isom
File size : 1.17 GiB
Duration : 1h 33mn
Overall bit rate mode : Variable
Overall bit rate : 1 792 Kbps
Encoded date : UTC 2013-12-26 05:43:48
Tagged date : UTC 2013-12-26 05:45:38
Writing application : MkvToMp4 version: 0.224 (x64)
Comment : Rip by semen_52-TNC
stik : 9

Video
ID : 1
Format : AVC
Format/Info : Advanced Video Codec
Format profile : [email protected]
Format settings, CABAC : Yes
Format settings, ReFrames : 8 frames
Codec ID : avc1
Codec ID/Info : Advanced Video Coding
Duration : 1h 32mn
Bit rate : 1 400 Kbps
Maximum bit rate : 9 142 Kbps
Width : 800 pixels
Height : 336 pixels
Display aspect ratio : 2.40:1
Frame rate mode : Constant
Frame rate : 23.976 fps
Color space : YUV
Chroma subsampling : 4:2:0
Bit depth : 8 bits
Scan type : Progressive
Bits/(Pixel*Frame) : 0.217
Stream size : 929 MiB (78%)
Writing library : x264 core 130 r2273 b3065e6
Encoding settings : cabac=1 / ref=8 / deblock=1:-2:-1 / analyse=0x3:0x133 / me=umh / subme=9 / psy=1 / psy_rd=0.40:0.00 / mixed_ref=1 / me_range=16 / chroma_me=1 / trellis=2 / 8x8dct=1 / cqm=0 / deadzone=21,11 / fast_pskip=0 / chroma_qp_offset=-2 / threads=6 / lookahead_threads=1 / sliced_threads=0 / nr=0 / decimate=1 / interlaced=0 / bluray_compat=0 / constrained_intra=0 / bframes=3 / b_pyramid=2 / b_adapt=2 / b_bias=0 / direct=3 / weightb=1 / open_gop=0 / weightp=2 / keyint=250 / keyint_min=25 / scenecut=40 / intra_refresh=0 / rc_lookahead=90 / rc=2pass / mbtree=1 / bitrate=1400 / ratetol=1.0 / qcomp=0.60 / qpmin=0 / qpmax=69 / qpstep=4 / cplxblur=20.0 / qblur=0.5 / ip_ratio=1.40 / aq=1:0.60
Language : English
Encoded date : UTC 2013-12-26 05:43:48
Tagged date : UTC 2013-12-26 05:44:22
Color primaries : BT.709
Transfer characteristics : BT.709
Matrix coefficients : BT.709

Audio #1
ID : 2
Format : AAC
Format/Info : Advanced Audio Codec
Format profile : LC
Codec ID : 67
Duration : 1h 33mn
Bit rate mode : Variable
Bit rate : 127 Kbps
Maximum bit rate : 198 Kbps
Channel(s) : 2 channels
Channel positions : Front: L R
Sampling rate : 48.0 KHz
Compression mode : Lossy
Stream size : 84.7 MiB (7%)
Title : Dub Reanimedia
Language : Russian
Encoded date : UTC 2013-12-26 05:44:01
Tagged date : UTC 2013-12-26 05:44:22

Audio #2
ID : 3
Format : AAC
Format/Info : Advanced Audio Codec
Format profile : LC
Codec ID : 40
Duration : 1h 32mn
Bit rate mode : Variable
Bit rate : 128 Kbps
Maximum bit rate : 135 Kbps
Channel(s) : 2 channels
Channel positions : Front: L R
Sampling rate : 48.0 KHz
Compression mode : Lossy
Stream size : 84.9 MiB (7%)
Title : VO Jam AniMedia
Language : Russian
Encoded date : UTC 2013-12-26 05:44:12
Tagged date : UTC 2013-12-26 05:44:22

Audio #3
ID : 4
Format : AAC
Format/Info : Advanced Audio Codec
Format profile : LC
Codec ID : 40
Duration : 1h 32mn
Bit rate mode : Variable
Bit rate : 128 Kbps
Maximum bit rate : 135 Kbps
Channel(s) : 2 channels
Channel positions : Front: L R
Sampling rate : 48.0 KHz
Compression mode : Lossy
Stream size : 84.9 MiB (7%)
Title : Original
Language : Japanese
Encoded date : UTC 2013-12-26 05:44:17
Tagged date : UTC 2013-12-26 05:44:22

Text #1
ID : 5
Format : Timed text
Muxing mode : sbtl
Codec ID : tx3g
Duration : 1h 27mn
Bit rate mode : Variable
Bit rate : 2 bps
Stream size : 1.43 KiB (0%)
Title : Forced titles
Language : Russian
Encoded date : UTC 2013-12-26 05:44:22
Tagged date : UTC 2013-12-26 05:44:22

Text #2
ID : 6
Format : Timed text
Muxing mode : sbtl
Codec ID : tx3g
Duration : 1h 26mn
Bit rate mode : Variable
Bit rate : 71 bps
Stream size : 45.0 KiB (0%)
Title : Full Hotaka_Raws
Language : Russian
Encoded date : UTC 2013-12-26 05:44:22
Tagged date : UTC 2013-12-26 05:44:22
Фильм III. Сошествие
Kourin

Год выпуска: 2013
Страна: Япония
Жанр: Приключения, фэнтези, драма
Продолжительность: 01:47:47
Озвучка: Нет
Оригинальная дорожка: Есть
Cубтитры: Russian вшитые полные [Keilex]
Режиссер: Кубоока Тосиюки
В ролях: Такахиро Фудзивара, Хироаки Иванага, Юки Кадзи, Кэрри Керанен, Минако Котобуки, Рикия Кояма, Ёсиро Мацумото, Кэнта Миякэ, Сакурай Такахиро, Яо Кадзуки
Описание: Длившийся несколько мгновений «Золотой век» Мидланда оборачивается бессмысленным, беспросветным и кажущимся бесконечным Средневековьем. Взлетевшего до небес Гриффита в интересах короны бросают в один из подвалов Башни Возрождения в Виндхейме, где талантливый палач быстро превращает «ястреба» в немую неподвижную куклу. Подчиненные же Гриффита приходят к тому, с чего начинали, – усталой, голодной и находящейся при смерти банде наемников.

Тем временем Гатс в который уже раз сходит с однажды избранного пути. Вернуться к возлюбленной и спасти лучшего друга – вот о чем думает человек, которому еще при рождении из трупа было уготовано всегда жить одиночкой. Но стоит ли вставать на пути судьбы и надвигающегося апокалипсиса, если в итоге лишишься правого глаза, левой руки и привычного окружения? «Стоит», – решает берсерк в попытке спасти хоть кого-то из друзей и пройти до конца Путь Мести.

Качество: BDRip (Рип с BD Remux 1080p)
Формат: MP4
Видео кодек: H.264
Аудио кодек: AAC
Видео: 800х336 (2.40:1), 1400 kbps, 23.976 fps
Аудио: Japanese, 2 ch, 48 kHz, 128 kbps [Original]
Киноцикл является новой крупнобюджетной экранизацией одноименного комикса (манги) Кэнтаро Миуры, выходящего с 1990 года.
General
Complete name : Berserk.Movie.Golden.Age.Arc.BDRip.x264.800x(semen_52-TNC)\[ANIME] Berserk.Movie03.Descent.2012.BDRip.x264.800x(semen_52-TNC).mp4
Format : MPEG-4
Format profile : Base Media
Codec ID : isom
File size : 1.16 GiB
Duration : 1h 47mn
Overall bit rate mode : Variable
Overall bit rate : 1 536 Kbps
Encoded date : UTC 2013-12-26 06:50:05
Tagged date : UTC 2013-12-26 06:51:47
Writing application : MkvToMp4 version: 0.224 (x64)
Comment : Rip by semen_52-TNC
stik : 9

Video
ID : 1
Format : AVC
Format/Info : Advanced Video Codec
Format profile : [email protected]
Format settings, CABAC : Yes
Format settings, ReFrames : 8 frames
Codec ID : avc1
Codec ID/Info : Advanced Video Coding
Duration : 1h 47mn
Bit rate : 1 400 Kbps
Maximum bit rate : 10.0 Mbps
Width : 800 pixels
Height : 336 pixels
Display aspect ratio : 2.40:1
Frame rate mode : Constant
Frame rate : 23.976 fps
Color space : YUV
Chroma subsampling : 4:2:0
Bit depth : 8 bits
Scan type : Progressive
Bits/(Pixel*Frame) : 0.217
Stream size : 1.05 GiB (91%)
Writing library : x264 core 130 r2273 b3065e6
Encoding settings : cabac=1 / ref=8 / deblock=1:-2:-2 / analyse=0x3:0x133 / me=umh / subme=9 / psy=1 / psy_rd=0.40:0.00 / mixed_ref=1 / me_range=16 / chroma_me=1 / trellis=2 / 8x8dct=1 / cqm=0 / deadzone=21,11 / fast_pskip=0 / chroma_qp_offset=-2 / threads=6 / lookahead_threads=1 / sliced_threads=0 / nr=0 / decimate=1 / interlaced=0 / bluray_compat=0 / constrained_intra=0 / bframes=3 / b_pyramid=2 / b_adapt=2 / b_bias=0 / direct=1 / weightb=1 / open_gop=0 / weightp=2 / keyint=250 / keyint_min=25 / scenecut=40 / intra_refresh=0 / rc_lookahead=90 / rc=2pass / mbtree=1 / bitrate=1400 / ratetol=1.0 / qcomp=0.60 / qpmin=0 / qpmax=69 / qpstep=4 / cplxblur=20.0 / qblur=0.5 / ip_ratio=1.40 / aq=1:0.60
Language : English
Encoded date : UTC 2013-12-26 06:50:05
Tagged date : UTC 2013-12-26 06:50:50
Color primaries : BT.709
Transfer characteristics : BT.709
Matrix coefficients : BT.709

Audio
ID : 2
Format : AAC
Format/Info : Advanced Audio Codec
Format profile : LC
Codec ID : 40
Duration : 1h 47mn
Bit rate mode : Variable
Bit rate : 128 Kbps
Maximum bit rate : 135 Kbps
Channel(s) : 2 channels
Channel positions : Front: L R
Sampling rate : 48.0 KHz
Compression mode : Lossy
Stream size : 98.7 MiB (8%)
Title : Original
Language : Japanese
Encoded date : UTC 2013-12-26 06:50:45
Tagged date : UTC 2013-12-26 06:50:50

Text
ID : 3
Format : Timed text
Muxing mode : sbtl
Codec ID : tx3g
Duration : 1h 43mn
Bit rate mode : Variable
Bit rate : 49 bps
Stream size : 37.6 KiB (0%)
Title : Full Keilex
Language : Russian
Encoded date : UTC 2013-12-26 06:50:50
Tagged date : UTC 2013-12-26 06:50:50


Трекер:  [ 26-Дек-2013 15:52 ]

  

Скачать .torrent

Размер .torrent файла 17 KB


Размер: 3.29 GB
Хэш (hash) релиза: 61a3df92500839a925b9a5dd91b57b17d2745c40

Еще никто не оставлял запись к записи скачать торрент [ANIME] Берсерк: Золотой век Berserk: Ougon Jidai Hen . Будь первым!

!Обратная связь