Building a Brand is Like Building a House | Running Man Episode 19 | Free Episode Download

Скачать через торрент [SERIAL] Подозреваемый Person of Interest бесплатно русская версия torrent активатор

Статистика раздачи
Размер:  1.93 GB   |    Зарегистрирован:  4 года 7 месяцев   |    .torrent скачан:  21 раз   |   
Раздают:  1  
   
загрузка...
 
Автор Сообщение

Galfimbul

avatar Galfimbul


Подозреваемый / Person of Interest

Год выпуска: 2013

Страна: США
Жанр: Драма, Триллер
Продолжительность: 00:43:00
Перевод: Профессиональный (многоголосый, закадровый)
Русские субтитры: нет
Режиссер: David Semel, Richard J. Lewis, Steven DePaul, Charles Beeson, Colin Bucksey, Dennis Smith,
В ролях: Jim Caviezel, Kevin Chapman, Michael Emerson, Taraji P. Henson, Anthony Mangano и др.
Описание: Сюжет вертится вокруг главного героя — хитроумного миллиардера, который изобрел способ вычислять людей, намеревающихся совершить какое-либо преступление.
Качество: HDTVRip
Формат: MP4
Видео кодек: H.264
Аудио кодек: AAC
Видео: MPEG4 Video (H264); 480x272 (16:9); 449 kbps; 24.00fps
Аудио: AAC 44100Hz stereo 126 kbps
ОбщееПолное имя : ...\Person of Interest [season 3, 480x272, mp4]\Person.of.Interest.S03E01.mp4Формат : MPEG-4Профиль формата : Base Media / Version 2Идентификатор кодека : mp42Размер файла : 179 МбайтПродолжительность : 43 м.Режим общего битрейта : ПеременныйОбщий поток : 573 Кбит/секДата кодирования : UTC 2013-09-28 01:19:56Дата пометки : UTC 2013-09-28 01:20:04Программа кодирования : mp4creator 1.4.4

ВидеоИдентификатор : 1Формат : AVCФормат/Информация : Advanced Video CodecПрофиль формата : [email protected]Параметр CABAC формата : НетПараметр ReFrames формата : 2 кадраИдентификатор кодека : avc1Идентификатор кодека/Информация : Advanced Video CodingПродолжительность : 43 м.Вид битрейта : ПеременныйБитрейт : 446 Кбит/секШирина : 480 пикселейВысота : 272 пикселяСоотношение сторон : 16:9Режим частоты кадров : ПостоянныйЧастота кадров : 24,000 кадра/секЦветовое пространство : YUVСубдискретизация насыщенности : 4:2:0Битовая глубина : 8 битТип развёртки : ПрогрессивнаяБит/(Пиксели*Кадры) : 0.142Размер потока : 139 Мбайт (78%)Язык : EnglishДата кодирования : UTC 2013-09-28 01:19:56Дата пометки : UTC 2013-09-28 01:20:02

АудиоИдентификатор : 2Формат : AACФормат/Информация : Advanced Audio CodecПрофиль формата : LCИдентификатор кодека : 40Продолжительность : 43 м.Продолжительность оригинала : 43 м.Вид битрейта : ПеременныйБитрейт : 126 Кбит/секМаксимальный битрейт : 306 Кбит/секКаналы : 2 каналаРасположение каналов : Front: L RЧастота : 44,1 КГцМетод сжатия : С потерямиРазмер потока : 39,2 Мбайт (22%)Размер потока оригинала : 39,2 Мбайт (22%)Язык : EnglishДата кодирования : UTC 2013-09-28 01:20:02Дата пометки : UTC 2013-09-28 01:20:04
1. Свобода (Liberty)
2. Нечего скрывать (Nothing to Hide)
3. Дон Жуан (Lady Killer)
4. Обоснованное сомнение (Reasonable Doubt)
5. Разговор (Razgovor)
6. Преждевременная смерть (Mors Praematura)
7. Идеальная цена (The Perfect Mark)
8. Развязка (Endgame)
9. Переход (The Crossing)
10. Доля дьявола (The Devil''s Share)
11. Лета - река забвения (Lethe)


Трекер:  [ 22-Дек-2013 12:46 ]

  

Скачать .torrent

Размер .torrent файла 20 KB


Размер: 1.93 GB
Хэш (hash) релиза: ddffdeca418c41ff9e05ea040b58b58a277fe77b

Еще никто не оставлял запись к записи скачать торрент [SERIAL] Подозреваемый Person of Interest . Будь первым!

!Обратная связь