Il est grand temps de rallumer les étoiles | Hoi-Pang Lo | Wendell Niles

Скачать через торрент [VIDEO] Три дня Кондора Three Days of the Condor бесплатно русская версия torrent активатор

Статистика раздачи
Размер:  482 MB   |    Зарегистрирован:  4 года 6 месяцев   |    .torrent скачан:  30 раз   |   
Раздают:  1  
   
загрузка...
 
Автор Сообщение

Galfimbul

avatar Galfimbul


Три дня Кондора / Three Days of the Condor

Год выпуска: 1975
Страна: США
Жанр: Триллер
Продолжительность: 01:57:06
Перевод: Профессиональный (двухголосый закадровый)
Cубтитры: нет
Режиссер: Сидни Поллак / Sydney Pollack
В ролях:
Роберт Редфорд,
Фэй Данауэй,
Клифф Робертсон,
Макс фон Сюдов,
Джон Хаусмен,
Эддисон Пауэлл,
Walter McGinn,
Тина Чен,
Майкл Кэйн,
Дон МакГенри
Описание: Работающий в одном из замаскированных отделов ЦРУ в Нью-Йорке парень по имени Джо Тэрнер занимается анализом бульварно-детективной литературы, в которой выискивает интересующие Ведомство «оригинальные приёмы».
В последний предрождественский рабочий день Тэрнер, вернувшись после обеденного перерыва с ужасом обнаруживает в конторе трупы своих 7-х коллег. Он звонит по «аварийному» телефону в дежурную часть ЦРУ. Начальство назначает ему встречу, но она оказывается ловушкой. Тэрнеру остаётся лишь одно: на свой страх и риск выяснить причины устроенной на него охоты.


Качество: BDRip
Формат: AVI
Видео кодек: XviD
Аудио кодек: MP3
Видео: XviD 480x200; 23.976 fps; ~ 437 Kbps; 0.190Bits/Pixel
Аудио: Mp3 48 kHz, 2 ch, 128 kbps
GeneralComplete name : C:\Три дня Кондора 480х _Эталон67.aviFormat : AVIFormat/Info : Audio Video InterleaveFile size : 482 MiBDuration : 1h 57mnOverall bit rate : 574 KbpsWriting application : VirtualDubMod 1.5.10.3 | www.virtualdub-fr.org || (build 2550/release)Writing library : VirtualDubMod build 2550/release

VideoID : 0Format : MPEG-4 VisualFormat profile : Advanced [email protected] settings, BVOP : 1Format settings, QPel : NoFormat settings, GMC : No warppointsFormat settings, Matrix : Default (H.263)Codec ID : XVIDCodec ID/Hint : XviDDuration : 1h 57mnBit rate : 437 KbpsWidth : 480 pixelsHeight : 200 pixelsDisplay aspect ratio : 2.40:1Frame rate : 23.976 fpsColor space : YUVChroma subsampling : 4:2:0Bit depth : 8 bitsScan type : ProgressiveCompression mode : LossyBits/(Pixel*Frame) : 0.190Stream size : 367 MiB (76%)Writing library : XviD 1.2.1 (UTC 2008-12-04)

AudioID : 1Format : MPEG AudioFormat version : Version 1Format profile : Layer 3Codec ID : 55Codec ID/Hint : MP3Duration : 1h 57mnBit rate mode : ConstantBit rate : 128 KbpsChannel(s) : 2 channelsSampling rate : 48.0 KHzCompression mode : LossyStream size : 107 MiB (22%)Alignment : Aligned on interleavesInterleave, duration : 42 ms (1.00 video frame)Interleave, preload duration : 504 msWriting library : LAME3.99rEncoding settings : -m s -V 4 -q 2 -lowpass 17 -b 128


Трекер:  [ 22-Дек-2013 12:45 ]

  

Скачать .torrent

Размер .torrent файла 38 KB


Размер: 482 MB
Хэш (hash) релиза: edee80f64284036db0fed546a7c4adb650ad7c33

Еще никто не оставлял запись к записи скачать торрент [VIDEO] Три дня Кондора Three Days of the Condor . Будь первым!

!Обратная связь