IMDb: 7.5 HD Harry Potter And The Half-Blood Prince | Tamara Tunie | Rex Evans

Скачать порно через торрент The Human Centipede II UnionPeer.org бесплатно онлайн HD качество

Скачать новое порно 2015, 2014 новинки через торрент UnionPeer.org

Порно торрент бесплатно ЮнионПир.орг

Статистика раздачи
Размер:  6.73 GB   |    Зарегистрирован:  4 года 7 месяцев   |    .torrent скачан:  196 раз   |   
Раздают:  1  
   
загрузка...
 
Автор Сообщение

LinGr

avatar LinGr


The Human Centipede II (Full Sequence) / Человеческая многоножка 2

Год производства: 2011 г.
Страна: США
Жанр: BDSM, Copro, Fetish
Продолжительность: 01.28.01

Режиссер: Том Сикс / Tom Six
Студия: Six Entertainment

В ролях:
Лоуренс Р. Харви, Эшлинн Йенни, Мэдди Блэк, Кэндес Кейн, Доминик Боррелли, Лукас Хансен, Ли Николас Харрис, Дэн Бурман, Дэниэл Джуд Дженнис, Джорджия Гудрик

Описание:
Мартин, маленький толстый мужчина в очках, страдающий от приступов астмы, коротает время в своей сторожке, раз за разом пересматривая DVD с первой частью фильма. Мартин буквально затирает несчастный диск, сексуально возбуждаясь от вида страданий людей на экране. Однажды он замечает парочку молодых людей, которые о чем-то громко спорят, распространяя гулкое эхо по пустынной автостоянке. Мерзкий карлик что-то задумывает, всматриваясь в экраны камер наблюдения. Недолго думая Мартин берет монтировку и отправляется к припаркованным автомобилям. Прострелив жертвам ноги, безумец вырубает парня и девушку ударом по голове и прячет в своем маленьком фургончике. Со временем, фургон становится пристанищем еще нескольких жертв. А Мартин арендует ангар, где собирается воплотить в жизнь свой давний план.

Доп. информация: Перевод: Профессиональный (многоголосый) [Позитив]
Не смотреть гражданам до 18 лет, людям с неустойчивой психикой, беременным женщинам.

Тип HD видео: 1080p
Качество видео: BDRip
Формат видео: MKV
Видео кодек: H.264/AVC
Аудио кодек: AC3
Видео: 1920x1080p (16:9), 25 fps, AVC MPEG4 Video (H264), [email protected] ~ 9122 Kbps
Аудио#1: Русский: 48 kHz, AC3 Dolby Digital, 2/0 (L,R) ch, ~192 kbps avg
Аудио#2: Английский: 48 kHz, DTS, 6 ch (Front: L C R, Side: L R, LFE), ~1510 kbps avg.
General
Format : Matroska
Format version : Version 4 / Version 2
File size : 6.73 GiB
Duration : 1h 27mn
Overall bit rate : 11.0 Mbps
Encoded date : UTC 2013-12-13 10:09:04
Writing application : mkvmerge v6.5.0 ('Isn't she lovely') built on Oct 20 2013 12:50:05
Writing library : libebml v1.3.0 + libmatroska v1.4.1

Video
ID : 1
Format : AVC
Format/Info : Advanced Video Codec
Format profile : [email protected]
Format settings, CABAC : Yes
Format settings, ReFrames : 4 frames
Codec ID : V_MPEG4/ISO/AVC
Duration : 1h 27mn
Bit rate : 9 122 Kbps
Width : 1 920 pixels
Height : 1 080 pixels
Display aspect ratio : 16:9
Frame rate mode : Constant
Frame rate : 23.976 fps
Color space : YUV
Chroma subsampling : 4:2:0
Bit depth : 8 bits
Scan type : Progressive
Bits/(Pixel*Frame) : 0.183
Stream size : 5.47 GiB (81%)
Writing library : x264 core 115 r2008 4c552d8
Encoding settings : cabac=1 / ref=4 / deblock=1:-3:-3 / analyse=0x3:0x113 / me=umh / subme=10 / psy=1 / psy_rd=1.10:0.15 / mixed_ref=1 / me_range=32 / chroma_me=1 / trellis=2 / 8x8dct=1 / cqm=2 / deadzone=21,11 / fast_pskip=0 / chroma_qp_offset=-2 / threads=12 / sliced_threads=0 / nr=0 / decimate=1 / interlaced=0 / bluray_compat=0 / constrained_intra=0 / bframes=6 / b_pyramid=2 / b_adapt=2 / b_bias=0 / direct=3 / weightb=1 / open_gop=0 / weightp=2 / keyint=250 / keyint_min=23 / scenecut=40 / intra_refresh=0 / rc_lookahead=60 / rc=2pass / mbtree=1 / bitrate=9122 / ratetol=1.0 / qcomp=0.60 / qpmin=1 / qpmax=63 / qpstep=4 / cplxblur=20.0 / qblur=0.5 / vbv_maxrate=40000 / vbv_bufsize=30000 / nal_hrd=none / ip_ratio=1.40 / aq=1:0.80
Language : English
Default : No
Forced : No

Audio #1
ID : 2
Format : AC-3
Format/Info : Audio Coding 3
Mode extension : CM (complete main)
Format settings, Endianness : Big
Codec ID : A_AC3
Duration : 1h 27mn
Bit rate mode : Constant
Bit rate : 192 Kbps
Channel(s) : 2 channels
Channel positions : Front: L R
Sampling rate : 44.1 KHz
Bit depth : 16 bits
Compression mode : Lossy
Stream size : 201 MiB (3%)
Title : Позитив [Rus]
Language : Russian
Default : Yes
Forced : No

Audio #2
ID : 3
Format : DTS
Format/Info : Digital Theater Systems
Mode : 16
Format settings, Endianness : Big
Codec ID : A_DTS
Duration : 1h 27mn
Bit rate mode : Constant
Bit rate : 1 509 Kbps
Channel(s) : 6 channels
Channel positions : Front: L C R, Side: L R, LFE
Sampling rate : 48.0 KHz
Bit depth : 24 bits
Compression mode : Lossy
Stream size : 949 MiB (14%)
Title : English
Language : English
Default : No
Forced : No

Text #1
ID : 4
Format : UTF-8
Codec ID : S_TEXT/UTF8
Codec ID/Info : UTF-8 Plain Text
Title : Russian
Language : Russian
Default : No
Forced : No

Text #2
ID : 5
Format : UTF-8
Codec ID : S_TEXT/UTF8
Codec ID/Info : UTF-8 Plain Text
Title : English
Language : English
Default : No
Forced : No


Трекер:  [ 14-Дек-2013 00:32 ]

  

Скачать .torrent

Размер .torrent файла 17 KB


Размер: 6.73 GB
Хэш (hash) релиза: b8592f20287451c8082b558117bb8b2250a30fb2

Торренты, похожие на The Human Centipede II скачать торрент

Форум Название Автор Размер S L Добавлен
Фетиш ·· The Human Centipede II (Full Sequence) / Человеческая многоножка 2 (Том Сикс / Tom Six, Six Entertainment) [2011 г., BDSM, Copro, Fetish, AVC 720p, BDRip][Rus+Eng+Sub][Extended] Galfimbul 966534201922 MB 0 0 1445015321

20:08

16-Окт-15

Фетиш ·· The Human Centipede II (Full Sequence) / Человеческая многоножка 2 (Том Сикс / Tom Six, Six Entertainment) [2011 г., BDSM, Copro, Fetish, HDRip][Rus+Eng] Galfimbul 14689771521.37 GB 0 0 1445013381

19:36

16-Окт-15

Нетрадиционное порно ·· The Human Centipede II / Человеческая многоножка 2 (Том Сикс / Tom Six, Six Entertainment) [2011 г., Copro, Fetish, BDRip 1080p] (Unrated Director's Cut / Полная режиссёрская версия) sub RU, EN Galfimbul 70401779226.56 GB 0 0 1441787453

11:30

9-Сен-15

Нетрадиционное порно ·· The Human Centipede II (Full Sequence) / Человеческая многоножка 2 (Том Сикс / Tom Six, Six Entertainment) [2011 г., bdsm, copro, fetish, 1080p, BDRip] [rus] MVO (Позитив) + Subs (Rus, Eng) Galfimbul 75623479997.04 GB 0 0 1430604212

01:03

3-Май-15

Нетрадиционное порно ·· The Human Centipede II (Full Sequence) / Человеческая многоножка 2 (Том Сикс / Tom Six, Six Entertainment) [2011 г., bdsm, copro, fetish, 720p, BDRip] [rus] MVO (Позитив) + Subs (Rus, Eng) Galfimbul 52363796214.88 GB 0 0 1430604199

01:03

3-Май-15

Нетрадиционное порно ·· The Human Centipede II (Full Sequence) (UNRATED DIRECTORS CUT) / Человеческая Многоножка 2 (Расширенная Режиссёрская Версия) (Том Сикс / Tom Six, Six Entertainment) [2011 г., BDSM, Horror, Thriller, Fetish, Copro, 720p] Galfimbul 35588444613.31 GB 0 0 1429482517

01:28

20-Апр-15

Нетрадиционное порно ·· The Human Centipede II (Full Sequence) / Человеческая Многоножка 2 (Том Сикс / Tom Six, Six Entertainment) [2011 г., BDSM, Horror, Thriller, Fetish, Copro, 720p, BDRip] [rus] [MVO(Позитив)] + [VO(den904)] Galfimbul 65285688056.08 GB 0 0 1429479182

00:33

20-Апр-15

Нетрадиционное порно ·· The Human Centipede II (Full Sequence) / Человеческая многоножка 2 (Том Сикс / Tom Six) [2011 г., Thriller, Copro, Fetish, DVD9] [rus] Galfimbul 47996108804.47 GB 0 0 1403046117

02:01

18-Июн-14

Фетиш ·· The Human Centipede II (Full Sequence) / Человеческая многоножка 2 (Том Сикс / Tom Six) [2011 г., BDSM, Copro, Fetish, BDRip] [rus] (Позитив) Galfimbul 729499648696 MB 0 0 1395684299

21:04

24-Мар-14

Нетрадиционное порно ·· The Human Centipede II (Full Sequence) / Человеческая многоножка 2 (Tom Six, Six Entertainment) [2011 г., BDSM, Copro, Fetish, BD Remux 1080p] [rus] (Позитив) Galfimbul 1947261695918.14 GB 0 0 1395408914

16:35

21-Мар-14

Еще никто не оставлял запись к записи скачать торрент The Human Centipede II . Будь первым!

!Обратная связь