A que no me dejas | Last Night at Chateau Marmont | Joey Kern

Скачать порно через торрент Where The Dead Go To Die Куда Мертвецы Уходят Умирать UnionPeer.org бесплатно онлайн HD качество

Скачать новое порно 2015, 2014 новинки через торрент UnionPeer.org

Порно торрент бесплатно ЮнионПир.орг

Статистика раздачи
Размер:  2.08 GB   |    Зарегистрирован:  4 года 7 месяцев   |    .torrent скачан:  135 раз   |   
Раздают:  1  
   
загрузка...
 
Автор Сообщение

Galfimbul

avatar Galfimbul


Where The Dead Go To Die / Куда Мертвецы Уходят Умирать

Год производства: 2012 г.
Страна: Uneted Sates Of America
Режисер: Jimmy ScreamerClauz
Студия: UNEARTHED FILMS
Жанр: Animation, Horror
Продолжительность: 1: 35: 06
Язык: Английский
Описание: Сюжет картины вращается вокруг проблемных детей, проживающих в одном квартале, которых преследует говорящая собака по кличке Labby. Она проносит их через сюрреалистичные адские приключения в различных измерениях и временных периодах. Так, в ночь лунного затмения Томми узнает, кто на самом деле сидит во чреве его матери.
А дальше смотрите сами...

В раздаче имеется альбом с музыкой из мультфильма
Format : Matroska
Format version : Version 2
File size : 2.00 GiB
Duration : 1h 35mn
Overall bit rate : 3 014 Kbps
Encoded date : UTC 2012-04-11 17:53:33
Writing application : mkvmerge v4.0.0 ('The Stars were mine') built on Jun 6 2010 16:18:42
Writing library : libebml v1.0.0 + libmatroska v1.0.0

Video
ID : 1
Format : AVC
Format/Info : Advanced Video Codec
Format profile : [email protected]
Format settings, CABAC : Yes
Format settings, ReFrames : 8 frames
Codec ID : V_MPEG4/ISO/AVC
Duration : 1h 35mn
Bit rate : 2 565 Kbps
Width : 1 280 pixels
Height : 720 pixels
Display aspect ratio : 16:9
Frame rate : 23.976 fps
Color space : YUV
Chroma subsampling : 4:2:0
Bit depth : 8 bits
Scan type : Progressive
Bits/(Pixel*Frame) : 0.116
Stream size : 1.67 GiB (83%)
Writing library : x264 core 122 r2183 c522ad1
Encoding settings : cabac=1 / ref=9 / deblock=1:-3:-3 / analyse=0x3:0x113 / me=umh / subme=10 / psy=1 / psy_rd=1.00:0.00 / mixed_ref=1 / me_range=16 / chroma_me=1 / trellis=2 / 8x8dct=1 / cqm=0 / deadzone=21,11 / fast_pskip=1 / chroma_qp_offset=-2 / threads=12 / sliced_threads=0 / nr=0 / decimate=1 / interlaced=0 / bluray_compat=0 / constrained_intra=0 / bframes=3 / b_pyramid=1 / b_adapt=1 / b_bias=0 / direct=1 / weightb=1 / open_gop=0 / weightp=2 / keyint=250 / keyint_min=23 / scenecut=40 / intra_refresh=0 / rc=2pass / mbtree=0 / bitrate=2565 / ratetol=1.0 / qcomp=0.60 / qpmin=0 / qpmax=69 / qpstep=4 / cplxblur=20.0 / qblur=0.5 / ip_ratio=1.40 / pb_ratio=1.30 / aq=1:0.80
Language : English
Default : Yes
Forced : No

Audio
ID : 2
Format : AC-3
Format/Info : Audio Coding 3
Mode extension : CM (complete main)
Codec ID : A_AC3
Duration : 1h 35mn
Bit rate mode : Constant
Bit rate : 448 Kbps
Channel(s) : 6 channels
Channel positions : Front: L C R, Side: L R, LFE
Sampling rate : 48.0 KHz
Bit depth : 16 bits
Compression mode : Lossy
Stream size : 305 MiB (15%)
Language : English
Default : Yes
Forced : No

Menu
00:00:00.000 : en:Chapter 01
00:00:00.367 : en:Chapter 02
00:01:15.141 : en:Chapter 03
00:06:33.826 : en:Chapter 04
00:09:12.685 : en:Chapter 05
00:11:30.923 : en:Chapter 06
00:16:33.826 : en:Chapter 07
00:20:15.414 : en:Chapter 08
00:22:14.633 : en:Chapter 09
00:24:27.199 : en:Chapter 10
00:29:24.496 : en:Chapter 11
00:31:39.163 : en:Chapter 12
00:35:34.398 : en:Chapter 13
00:48:19.696 : en:Chapter 14
00:58:05.815 : en:Chapter 15
01:09:38.674 : en:Chapter 16
01:19:56.725 : en:Chapter 17
01:24:42.477 : en:Chapter 18
01:32:50.665 : en:Chapter 19


Трекер:  [ 06-Дек-2013 12:36 ]

  

Скачать .torrent

Размер .torrent файла 14 KB


Размер: 2.08 GB
Хэш (hash) релиза: 1eec91d1e5dcfa82cec4bd86a3ecc9aa1bd0251e

Торренты, похожие на Where The Dead Go To Die Куда Мертвецы Уходят Умирать скачать торрент

Форум Название Автор Размер S L Добавлен
Мультфильмы ·· Where The Dead Go To Die / Куда Мертвецы Уходят Умирать [2012 г., Animation, Horror] [eng] Galfimbul 819414394781 MB 0 0 1386277315

00:01

6-Дек-13

Мультфильмы ·· Where The Dead Go To Die / Куда Мертвецы Уходят Умирать [2012 г., Animation, Horror] [rus] LinGr 15867414811.48 GB 0 0 1375707452

15:57

5-Авг-13

bot

Топик был перенесен в форум Мультфильмы

Перенес Galfimbul

Хотите добавить комментарий к записи скачать торрент Where The Dead Go To Die Куда Мертвецы Уходят Умирать

!Обратная связь