The Carbonaro Effect S03E04 720p HDTV x264-W4F [eztv] | Homes Under The Hammer S20E49 HDTV x264-NORiTE [eztv] | Summer's Desire

Скачать порно через торрент Where The Dead Go To Die Куда Мертвецы Уходят Умирать UnionPeer.org бесплатно онлайн HD качество

Скачать новое порно 2015, 2014 новинки через торрент UnionPeer.org

Порно торрент бесплатно ЮнионПир.орг

Статистика раздачи
Размер:  781 MB   |    Зарегистрирован:  4 года 7 месяцев   |    .torrent скачан:  147 раз   |   
Раздают:  1  
   
загрузка...
 
Автор Сообщение

Galfimbul

avatar Galfimbul


Where The Dead Go To Die / Куда Мертвецы Уходят Умирать

Год производства: 2012 г.
Страна: Uneted Sates Of America
Режисер: Jimmy ScreamerClauz
Студия: UNEARTHED FILMS
Жанр: Animation, Horror
Продолжительность: 1: 35: 06
Язык: Английский
Описание: Сюжет картины вращается вокруг проблемных детей, проживающих в одном квартале, которых преследует говорящая собака по кличке Labby. Она проносит их через сюрреалистичные адские приключения в различных измерениях и временных периодах. Так, в ночь лунного затмения Томми узнает, кто на самом деле сидит во чреве его матери.
А дальше смотрите сами...

В раздаче имеется альбом с музыкой из мультфильма
Format : AVI
Format/Info : Audio Video Interleave
File size : 700 MiB
Duration : 1h 35mn
Overall bit rate mode : Variable
Overall bit rate : 1 028 Kbps
Writing application : VirtualDubMod 1.5.4.1 (build 2178/release)
Writing library : VirtualDubMod build 2178/release

Video
ID : 0
Format : MPEG-4 Visual
Format profile : Advanced [email protected]
Format settings, BVOP : 1
Format settings, QPel : No
Format settings, GMC : No warppoints
Format settings, Matrix : Custom
Codec ID : XVID
Codec ID/Hint : XviD
Duration : 1h 35mn
Bit rate : 895 Kbps
Width : 640 pixels
Height : 368 pixels
Display aspect ratio : 16:9
Frame rate : 25.000 fps
Color space : YUV
Chroma subsampling : 4:2:0
Bit depth : 8 bits
Scan type : Progressive
Compression mode : Lossy
Bits/(Pixel*Frame) : 0.152
Stream size : 609 MiB (87%)
Writing library : XviD 1.3.0.dev55

Audio
ID : 1
Format : MPEG Audio
Format version : Version 1
Format profile : Layer 3
Mode : Joint stereo
Mode extension : MS Stereo
Codec ID : 55
Codec ID/Hint : MP3
Duration : 1h 35mn
Bit rate mode : Variable
Bit rate : 120 Kbps
Nominal bit rate : 128 Kbps
Channel(s) : 2 channels
Sampling rate : 48.0 KHz
Compression mode : Lossy
Stream size : 81.9 MiB (12%)
Alignment : Aligned on interleaves
Interleave, duration : 24 ms (0.60 video frame)
Interleave, preload duration : 516 ms
Writing library : LAME3.98r
Encoding settings : -m j -V 4 -q 2 -lowpass 17 --abr 128
Language : English


Трекер:  [ 06-Дек-2013 12:36 ]

  

Скачать .torrent

Размер .torrent файла 19 KB


Размер: 781 MB
Хэш (hash) релиза: 4c71aafcd4f5a32613bbc04c949dc47610a33808

Торренты, похожие на Where The Dead Go To Die Куда Мертвецы Уходят Умирать скачать торрент

Форум Название Автор Размер S L Добавлен
Мультфильмы ·· Where The Dead Go To Die / Куда Мертвецы Уходят Умирать [2012 г., Animation, Horror] [eng] Galfimbul 22363822182.08 GB 0 0 1386277317

00:01

6-Дек-13

Мультфильмы ·· Where The Dead Go To Die / Куда Мертвецы Уходят Умирать [2012 г., Animation, Horror] [rus] LinGr 15867414811.48 GB 0 0 1375707452

15:57

5-Авг-13

bot

Топик был перенесен в форум Мультфильмы

Перенес Galfimbul

Хотите добавить комментарий к записи скачать торрент Where The Dead Go To Die Куда Мертвецы Уходят Умирать

!Обратная связь