Marvels Cloak and Dagger S01E05 FRENCH WEBRip XviD-ZT | SWEDISH FARM | Leya Catlett

Скачать порно через торрент [DaringSEX.com] Isabel Ice, Cameron A - Bondage Thougths UnionPeer.org бесплатно онлайн HD качество

Скачать новое порно 2015, 2014 новинки через торрент UnionPeer.org

Порно торрент бесплатно ЮнионПир.орг

Статистика раздачи
Размер:  252 MB   |    Зарегистрирован:  4 года 8 месяцев   |    .torrent скачан:  315 раз   |   
Раздают:  2  
   
загрузка...
 
Автор Сообщение

LinGr

avatar LinGr


Isabel Ice, Cameron A - Bondage Thougths

Год производства: 2011 г.
Жанр: anal, hard sex, BDSM, fetish, big tits
Продолжительность: 00:18:47

Студия: DaringSEX.com

В ролях: Isabel Ice, Cameron A

Формат видео: WMV
Видео кодек: Windows Media
Аудио кодек: WMA
Видео: Windows Media Video 8 720x400 1758kbps [Raw Video 0]
Аудио: Windows Media Audio 44100Hz stereo 96kbps [Raw Audio 1]
Format : Windows Media
File size : 252 MiB
Duration : 18mn 47s
Overall bit rate : 1 874 Kbps
Maximum Overall bit rate : 1 896 Kbps
Encoded date : UTC 1970-01-01 00:00:00.000

Video
ID : 1
Format : WMV2
Codec ID : WMV2
Codec ID/Info : Windows Media Video 8
Description of the codec : wmv2
Duration : 18mn 47s
Bit rate : 1 695 Kbps
Width : 720 pixels
Height : 400 pixels
Display aspect ratio : 16:9
Frame rate : 29.970 fps
Bit depth : 8 bits
Bits/(Pixel*Frame) : 0.196
Stream size : 228 MiB (90%)

Audio
ID : 2
Format : WMA
Format version : Version 2
Codec ID : 161
Codec ID/Info : Windows Media Audio
Description of the codec : Windows Media Audio V8
Duration : 18mn 47s
Bit rate : 96.0 Kbps
Channel(s) : 2 channels
Sampling rate : 44.1 KHz
Bit depth : 16 bits
Stream size : 12.9 MiB (5%)


Трекер:  [ 20-Окт-2013 17:39 ]

  

Скачать .torrent

Размер .torrent файла 20 KB


Размер: 252 MB
Хэш (hash) релиза: fc1a212992cacf63934c673507965d4079f73d73

Еще никто не оставлял запись к записи скачать торрент [DaringSEX.com] Isabel Ice, Cameron A - Bondage Thougths . Будь первым!

!Обратная связь