Click Here to Login | Fear Her season 02 episode 11 | Comic Girls

Скачать порно через торрент Dragon Age: Origins - The Oasis of Pleasure Эпоха драконов: начало - Оазис удовольствий UnionPeer.org бесплатно онлайн HD качество

Скачать новое порно 2015, 2014 новинки через торрент UnionPeer.org

Порно торрент бесплатно ЮнионПир.орг

Статистика раздачи
Размер:  193 MB   |    Зарегистрирован:  4 года 9 месяцев   |    .torrent скачан:  1317 раз   |   
Раздают:  1  
   
загрузка...
 
Автор Сообщение

LinGr

avatar LinGr


Dragon Age: Origins - The Oasis of Pleasure
Эпоха драконов: начало - Оазис удовольствий


Год производства: 2010 г.
Жанр: Anal sex, Big tits, Oral sex, Yuri
Серии: ep. 1
Продолжительность: 8 м. 39 с.
Цензура: Отсутствует

Озвучка: Отсутствует (только музыка)

Автор оригинала: BioWare

Описание:
Фэнтезийная ролевая игра «Dragon Age: Начало» продолжает традиции и развивает идеи легендарной Baldur’s Gate, созданной компанией BioWare еще в 1998 году и до сих пор считающейся одной из самых популярных игр жанра. В Dragon Age собраны и тщательно сбалансированы все лучшие черты ролевых проектов. Эта мрачная сага — не просто игра, а настоящий магический портал в иной мир, живущий по собственным суровым законам!
В «Dragon Age: Начало» студия BioWare возвращается к истокам жанра, не забывая при этом о современных технологиях. Вас ждет глубоко проработанная, захватывающая история, сногсшибательные спецэффекты и стремительные бескомпромиссные сражения. В них герои полагаются как на силу своего оружия, так и на магические способности. При этом каждый персонаж — яркая индивидуальность, почти живой человек по ту сторону экрана. Готовы ли вы сменить реальность и с головой окунуться в Dragon Age?


Доп. информация: Это видео создано на основе использования мода Better Sex Cutscenes.

Качество видео: GameRip
Формат видео: AVI
Видео кодек: XviD
Аудио кодек: AC3
Видео: 1360х768, (16:9), XVID, 2909 Кбит/сек, 29,970 кадров/сек
Аудио: AC-3, 2 канала, 192 Кбит/сек, 48,0 КГц
Общее
Полное имя : D:\Dragon Age Origins - The Oasis of Pleasure\Dragon Age Origins - The Oasis of Pleasure.avi
Формат : AVI
Формат/Информация : Audio Video Interleave
Размер файла : 193 Мбайт
Продолжительность : 8 м. 39 с.
Общий поток : 3113 Кбит/сек
Библиотека кодирования : VirtualDub build 32661/release

Видео
Идентификатор : 0
Формат : MPEG-4 Visual
Профиль формата : Advanced [email protected]
Параметр BVOP формата : 2
Параметр QPel формата : Нет
Параметр GMC формата : Без точки перехода
Параметр матрицы формата : Default (H.263)
Режим смешивания : Сжатый битовый поток
Идентификатор кодека : XVID
Идентификатор кодека/Подсказка : XviD
Продолжительность : 8 м. 39 с.
Битрейт : 2909 Кбит/сек
Ширина : 1360 пикселей
Высота : 768 пикселей
Соотношение сторон : 16:9
Частота кадров : 29,970 кадров/сек
Цветовое пространство : YUV
Субдискретизация насыщенности : 4:2:0
Битовая глубина : 8 бит
Тип развёртки : Прогрессивная
Метод сжатия : С потерями
Бит/(Пиксели*Кадры) : 0.093
Размер потока : 180 Мбайт (93%)
Библиотека кодирования : XviD 1.2.1 (UTC 2008-12-04)

Аудио
Идентификатор : 1
Формат : AC-3
Формат/Информация : Audio Coding 3
Расширение режима : CM (complete main)
Параметр Endianness формата : Big
Идентификатор кодека : 2000
Продолжительность : 8 м. 39 с.
Вид битрейта : Постоянный
Битрейт : 192 Кбит/сек
Каналы : 2 канала
Расположение каналов : Front: L R
Частота : 48,0 КГц
Битовая глубина : 16 бит
Метод сжатия : С потерями
Размер потока : 11,9 Мбайт (6%)
Выравнивание : Соединение по промежуткам
Продолжительность промежутка : 33 мс. (1,00 видеокадр)
Время предзагрузки промежутка : 512 мс.


Трекер:  [ 06-Окт-2013 17:23 ]

  

Скачать .torrent

Размер .torrent файла 15 KB


Размер: 193 MB
Хэш (hash) релиза: b3c02073794fe53b56ce494eb515aabf3fa43f84

Еще никто не оставлял запись к записи скачать торрент Dragon Age: Origins - The Oasis of Pleasure Эпоха драконов: начало - Оазис удовольствий . Будь первым!

!Обратная связь