Deadpool (2016) 1080p BluRay x264 [Dual-Audio] [English DD 5.1 + Hindi DD 5.1] - NicK | WWE DVD Andre The Giant | pixandvideo darcia lee

Скачать через торрент Ленинград Фильм бесплатно в хорошем качестве torrent

Скачивайте на UnionPeer.org фильмы через торрент без регистрации. Новинки кино в хорошем качестве через торрент. На UnionPeer.org можно скачать через торрент фильмы 2014 и 2015 годов. Самые новые фильмы.

Скачать торрент Ленинград бесплатно через .torrent фильм мультфильм сериал

Статистика раздачи
Размер:  28.61 GB   |    Зарегистрирован:  7 лет 9 месяцев   |    .torrent скачан:  122 раза   |   
Раздают:  1  
   
загрузка...
 
Автор Сообщение

VitalMedix

avatar VitalMedix


Ленинград

Год выпуска: 2009
Страна: Россия
Жанр: Драма, военный, история
Продолжительность: 01:50:22
Cубтитры: Английские (вшиты на русскую и немецкую речь) + Русские субтитры на английскую речь (внешние srt*)
Режиссер: Александр Буравский
В ролях: Мира Сорвино, Армин Мюллер-Шталь, Ольга Сутулова, Михаил Ефремов, Гэбриел Бирн

О фильме: Зима 1941-го. С неба безостановочно сыплются бомбы, превращая дома в руины, а выживших, оставшихся без крова мерзнущих людей душит голод. Гитлер убежден, что блокада превратит ленинградцев в стадо диких зверей, рвущих друг у друга куски пищи. Но ленинградцы остаются людьми.

В фильме две героини: Нина Цветкова и Кейт Дэвис. Одна — ленинградка, милиционерша, «рабочая косточка», истовая комсомолка, дочь героя Гражданской, зарубленного в бою с белогвардейцами. А другая — дворянка, родившаяся в Петербурге, дочь белого генерала, эмигрантка, космополитка, журналистка, абсолютно не приспособленная к жизни — не говоря уже о немыслимых тяготах блокады.

Они должны быть врагами, но жизнь рассудит иначе. Жизнь, за которую они отчаянно борются.
User Rating: 6.889/10 (85 votes)
Imdb: 6.7/10 (632 votes)

Релиз:
Качество: Blu-ray BD-50 Double-Layer Disc
Формат: BDAV
Видео: MPEG-4 AVC Video, 29995 kbps, 1920* 1080p, 24 fps / 16:9 / High Profile 4.1
Аудио: DTS-HD MA 5.1 (48 kHz / 1980 kbps / 16-bit) DTS Core: 5.1 / 48 kHz / 1509 kbps / 16-bit rus

Допы:
~ Анонсы фильмов Адмирал, Пламя и Цитрон, Пятьдесят ходячих трупов
~ Как снимался фильм
~ Интервью актеров
Disc Title:
Disc Size: 30 723 233 620 bytes
Protection: AACS
BD-Java: No
BDInfo: 0.5.3

Notes:

BDINFO HOME:
Cinema Squid
http://www.cinemasquid.com/blu-ray/tools/bdinfo

INCLUDES FORUMS REPORT FOR:
AVS Forum Blu-ray Audio and Video Specifications Thread
http://www.avsforum.com/avs-vb/showthread.php?t=1155731

********************
PLAYLIST: 00003.MPLS
********************

<--- BEGIN FORUMS PASTE --->

Код:

Total   Video
Title                                                           Codec   Length  Movie Size      Disc Size       Bitrate Bitrate Main Audio Track                          Secondary Audio Track
-----                                                           ------  ------- --------------  --------------  ------- ------- ------------------                        ---------------------
00003.MPLS                                                      AVC     1:50:22 27 877 490 688  30 723 233 620  33,68   30,00   DTS-HD Master 5.1 1980Kbps (48kHz/16-bit)[/spoiler]
[code]DISC INFO:

Disc Title:
Disc Size:      30 723 233 620 bytes
Protection:     AACS
BD-Java:        No
BDInfo:         0.5.3

PLAYLIST REPORT:

Name:                   00003.MPLS
Length:                 1:50:22 (h:m:s)
Size:                   27 877 490 688 bytes
Total Bitrate:          33,68 Mbps

VIDEO:

Codec                   Bitrate             Description
-----                   -------             -----------
MPEG-4 AVC Video        29995 kbps          1080p / 24 fps / 16:9 / High Profile 4.1

AUDIO:

Codec                           Language        Bitrate         Description
-----                           --------        -------         -----------
DTS-HD Master Audio             Russian         1980 kbps       5.1 / 48 kHz / 1980 kbps / 16-bit (DTS Core: 5.1 / 48 kHz / 1509 kbps / 16-bit)

SUBTITLES:

Codec                           Language        Bitrate         Description
-----                           --------        -------         -----------
Presentation Graphics           English         0,019 kbps

FILES:

Name            Time In         Length          Size            Total Bitrate
----            -------         ------          ----            -------------
00004.M2TS      0:00:00.000     1:50:22.208     27 877 490 688  33 678

CHAPTERS:

Number          Time In         Length          Avg Video Rate  Max 1-Sec Rate  Max 1-Sec Time  Max 5-Sec Rate  Max 5-Sec Time  Max 10Sec Rate  Max 10Sec Time  Avg Frame Size  Max Frame Size  Max Frame Time
------          -------         ------          --------------  --------------  --------------  --------------  --------------  --------------  --------------  --------------  --------------  --------------
1               0:00:00.000     0:09:03.166     31 043 kbps     37 835 kbps     00:06:52.958    33 636 kbps     00:06:48.958    32 931 kbps     00:00:35.708    161 672 bytes   366 192 bytes   00:07:15.083
2               0:09:03.166     0:08:40.708     31 468 kbps     38 608 kbps     00:10:35.666    33 324 kbps     00:14:40.708    32 965 kbps     00:12:47.291    163 897 bytes   467 113 bytes   00:14:47.916
3               0:17:43.875     0:09:13.541     31 066 kbps     37 105 kbps     00:20:09.583    33 565 kbps     00:20:05.666    33 104 kbps     00:20:00.625    161 801 bytes   420 489 bytes   00:18:17.208
4               0:26:57.416     0:08:26.791     29 199 kbps     34 101 kbps     00:30:03.000    33 034 kbps     00:33:18.083    32 951 kbps     00:33:12.750    152 081 bytes   353 981 bytes   00:29:51.500
5               0:35:24.208     0:08:59.791     30 149 kbps     34 704 kbps     00:40:27.625    33 112 kbps     00:39:27.875    32 958 kbps     00:36:56.291    157 024 bytes   354 936 bytes   00:39:32.875
6               0:44:24.000     0:07:57.000     29 459 kbps     34 442 kbps     00:51:48.125    33 073 kbps     00:51:45.250    32 932 kbps     00:51:38.833    153 434 bytes   381 701 bytes   00:51:49.166
7               0:52:21.000     0:11:14.041     29 915 kbps     34 525 kbps     00:59:41.250    33 139 kbps     00:59:38.291    32 970 kbps     00:57:49.875    155 806 bytes   392 522 bytes   00:59:42.291
8               1:03:35.041     0:11:08.958     29 969 kbps     35 143 kbps     01:12:43.666    33 244 kbps     01:05:50.916    32 966 kbps     01:04:04.500    156 086 bytes   407 423 bytes   01:05:52.875
9               1:14:44.000     0:07:20.083     31 135 kbps     34 215 kbps     01:18:40.583    33 122 kbps     01:18:36.625    32 991 kbps     01:18:31.583    162 162 bytes   400 373 bytes   01:19:14.750
10              1:22:04.083     0:15:12.333     30 655 kbps     35 992 kbps     01:22:35.625    33 171 kbps     01:35:59.166    32 964 kbps     01:35:54.166    159 661 bytes   365 386 bytes   01:33:34.250
11              1:37:16.416     0:08:50.041     32 120 kbps     35 569 kbps     01:43:28.166    33 310 kbps     01:43:24.083    32 953 kbps     01:41:39.041    167 289 bytes   365 933 bytes   01:38:11.958
12              1:46:06.458     0:04:15.750     16 266 kbps     34 604 kbps     01:46:23.750    33 161 kbps     01:46:19.958    32 975 kbps     01:46:14.833    84 731 bytes    366 421 bytes   01:47:13.041

STREAM DIAGNOSTICS:

File            PID             Type            Codec           Language                Seconds                 Bitrate                 Bytes           Packets
----            ---             ----            -----           --------                --------------          --------------          -------------   -----
00004.M2TS      4113 (0x1011)   0x1B            AVC                                     6622,042                29 996                  24 829 180 244  135 033 711
00004.M2TS      4352 (0x1100)   0x86            DTS-HD MA       rus (Russian)           6622,042                1 980                   1 638 712 716   9 939 592
00004.M2TS      4608 (0x1200)   0x90            PGS             eng (English)           6622,042                0                       15 582          91[/code]
<---- END FORUMS PASTE ---->

QUICK SUMMARY:

Disc Title:
Disc Size: 30 723 233 620 bytes
Protection: AACS
BD-Java: No
Playlist: 00003.MPLS
Size: 27 877 490 688 bytes
Length: 1:50:22
Total Bitrate: 33,68 Mbps
Video: MPEG-4 AVC Video / 29995 kbps / 1080p / 24 fps / 16:9 / High Profile 4.1
Audio: Russian / DTS-HD Master Audio / 5.1 / 48 kHz / 1980 kbps / 16-bit (DTS Core: 5.1 / 48 kHz / 1509 kbps / 16-bit)
Subtitle: English / 0,019 kbps

********************
PLAYLIST: 00000.MPLS
********************

<--- BEGIN FORUMS PASTE --->
[code]Total   Video
Title                                                           Codec   Length  Movie Size      Disc Size       Bitrate Bitrate Main Audio Track                          Secondary Audio Track
-----                                                           ------  ------- --------------  --------------  ------- ------- ------------------                        ---------------------
00000.MPLS                                                      MPEG-2  0:38:40 1 604 831 232   30 723 233 620  5,53    5,00    DD AC3 2.0 192Kbps[/code]
[code]DISC INFO:

Disc Title:
Disc Size:      30 723 233 620 bytes
Protection:     AACS
BD-Java:        No
BDInfo:         0.5.3

PLAYLIST REPORT:

Name:                   00000.MPLS
Length:                 0:38:40 (h:m:s)
Size:                   1 604 831 232 bytes
Total Bitrate:          5,53 Mbps

VIDEO:

Codec                   Bitrate             Description
-----                   -------             -----------
MPEG-2 Video            5002 kbps           576i / 25 fps / 4:3

AUDIO:

Codec                           Language        Bitrate         Description
-----                           --------        -------         -----------
Dolby Digital Audio             Russian         192 kbps        2.0 / 48 kHz / 192 kbps

FILES:

Name            Time In         Length          Size            Total Bitrate
----            -------         ------          ----            -------------
00001.M2TS      0:00:00.000     0:38:40.040     1 604 831 232   5 534

CHAPTERS:

Number          Time In         Length          Avg Video Rate  Max 1-Sec Rate  Max 1-Sec Time  Max 5-Sec Rate  Max 5-Sec Time  Max 10Sec Rate  Max 10Sec Time  Avg Frame Size  Max Frame Size  Max Frame Time
------          -------         ------          --------------  --------------  --------------  --------------  --------------  --------------  --------------  --------------  --------------  --------------
1               0:00:00.000     0:09:58.200     5 069 kbps      8 782 kbps      00:00:56.080    8 164 kbps      00:00:53.680    7 177 kbps      00:00:51.640    25 344 bytes    117 796 bytes   00:01:25.720
2               0:09:58.200     0:11:45.079     5 001 kbps      9 028 kbps      00:15:26.320    7 460 kbps      00:15:23.960    6 926 kbps      00:15:24.120    25 005 bytes    108 644 bytes   00:13:15.240
3               0:21:43.280     0:08:11.720     4 761 kbps      8 220 kbps      00:27:21.119    7 031 kbps      00:27:18.119    6 263 kbps      00:29:27.360    23 803 bytes    94 492 bytes    00:29:18.600
4               0:29:55.000     0:08:45.040     5 155 kbps      9 236 kbps      00:37:46.840    8 398 kbps      00:34:02.520    8 014 kbps      00:33:36.680    25 776 bytes    129 840 bytes   00:33:48.480

STREAM DIAGNOSTICS:

File            PID             Type            Codec           Language                Seconds                 Bitrate                 Bytes           Packets
----            ---             ----            -----           --------                --------------          --------------          -------------   -----
00001.M2TS      4113 (0x1011)   0x02            MPEG-2                                  2319,880                5 003                   1 450 725 716   7 918 254
00001.M2TS      4352 (0x1100)   0x81            AC3             rus (Russian)           2319,880                192                     55 681 536      362 510[/code]
<---- END FORUMS PASTE ---->

QUICK SUMMARY:

Disc Title:
Disc Size: 30 723 233 620 bytes
Protection: AACS
BD-Java: No
Playlist: 00000.MPLS
Size: 1 604 831 232 bytes
Length: 0:38:40
Total Bitrate: 5,53 Mbps
Video: MPEG-2 Video / 5002 kbps / 576i / 25 fps / 4:3
Audio: Russian / Dolby Digital Audio / 2.0 / 48 kHz / 192 kbps

********************
PLAYLIST: 00001.MPLS
********************

<--- BEGIN FORUMS PASTE --->
[code]Total   Video
Title                                                           Codec   Length  Movie Size      Disc Size       Bitrate Bitrate Main Audio Track                          Secondary Audio Track
-----                                                           ------  ------- --------------  --------------  ------- ------- ------------------                        ---------------------
00001.MPLS                                                      MPEG-2  0:14:02 584 171 520     30 723 233 620  5,55    5,02    DD AC3 2.0 192Kbps[/code]
[code]DISC INFO:

Disc Title:
Disc Size:      30 723 233 620 bytes
Protection:     AACS
BD-Java:        No
BDInfo:         0.5.3

PLAYLIST REPORT:

Name:                   00001.MPLS
Length:                 0:14:02 (h:m:s)
Size:                   584 171 520 bytes
Total Bitrate:          5,55 Mbps

VIDEO:

Codec                   Bitrate             Description
-----                   -------             -----------
MPEG-2 Video            5018 kbps           576i / 25 fps / 16:9

AUDIO:

Codec                           Language        Bitrate         Description
-----                           --------        -------         -----------
Dolby Digital Audio             Russian         192 kbps        2.0 / 48 kHz / 192 kbps

FILES:

Name            Time In         Length          Size            Total Bitrate
----            -------         ------          ----            -------------
00002.M2TS      0:00:00.000     0:14:02.040     584 171 520     5 550

CHAPTERS:

Number          Time In         Length          Avg Video Rate  Max 1-Sec Rate  Max 1-Sec Time  Max 5-Sec Rate  Max 5-Sec Time  Max 10Sec Rate  Max 10Sec Time  Avg Frame Size  Max Frame Size  Max Frame Time
------          -------         ------          --------------  --------------  --------------  --------------  --------------  --------------  --------------  --------------  --------------  --------------
1               0:00:00.000     0:14:02.040     5 018 kbps      9 642 kbps      00:01:19.720    8 824 kbps      00:10:37.000    8 767 kbps      00:10:32.960    25 089 bytes    150 356 bytes   00:01:20.720

STREAM DIAGNOSTICS:

File            PID             Type            Codec           Language                Seconds                 Bitrate                 Bytes           Packets
----            ---             ----            -----           --------                --------------          --------------          -------------   -----
00002.M2TS      4113 (0x1011)   0x02            MPEG-2                                  841,920                 5 019                   528 151 532     2 882 773
00002.M2TS      4352 (0x1100)   0x81            AC3             rus (Russian)           841,920                 192                     20 209 152      131 570[/code]
<---- END FORUMS PASTE ---->

QUICK SUMMARY:

Disc Title:
Disc Size: 30 723 233 620 bytes
Protection: AACS
BD-Java: No
Playlist: 00001.MPLS
Size: 584 171 520 bytes
Length: 0:14:02
Total Bitrate: 5,55 Mbps
Video: MPEG-2 Video / 5018 kbps / 576i / 25 fps / 16:9
Audio: Russian / Dolby Digital Audio / 2.0 / 48 kHz / 192 kbps

********************
PLAYLIST: 00005.MPLS
********************

<--- BEGIN FORUMS PASTE --->
[code]Total   Video
Title                                                           Codec   Length  Movie Size      Disc Size       Bitrate Bitrate Main Audio Track                          Secondary Audio Track
-----                                                           ------  ------- --------------  --------------  ------- ------- ------------------                        ---------------------
00005.MPLS                                                      MPEG-2  0:02:01 104 374 272     30 723 233 620  6,90    6,31    DD AC3 2.0 192Kbps[/code]
[code]DISC INFO:

Disc Title:
Disc Size:      30 723 233 620 bytes
Protection:     AACS
BD-Java:        No
BDInfo:         0.5.3

PLAYLIST REPORT:

Name:                   00005.MPLS
Length:                 0:02:01 (h:m:s)
Size:                   104 374 272 bytes
Total Bitrate:          6,90 Mbps

VIDEO:

Codec                   Bitrate             Description
-----                   -------             -----------
MPEG-2 Video            6308 kbps           576i / 25 fps / 16:9

AUDIO:

Codec                           Language        Bitrate         Description
-----                           --------        -------         -----------
Dolby Digital Audio             English         192 kbps        2.0 / 48 kHz / 192 kbps

FILES:

Name            Time In         Length          Size            Total Bitrate
----            -------         ------          ----            -------------
00008.M2TS      0:00:00.000     0:02:01.080     104 374 272     6 896

CHAPTERS:

Number          Time In         Length          Avg Video Rate  Max 1-Sec Rate  Max 1-Sec Time  Max 5-Sec Rate  Max 5-Sec Time  Max 10Sec Rate  Max 10Sec Time  Avg Frame Size  Max Frame Size  Max Frame Time
------          -------         ------          --------------  --------------  --------------  --------------  --------------  --------------  --------------  --------------  --------------  --------------
1               0:00:00.000     0:02:01.080     6 308 kbps      9 558 kbps      00:00:33.720    8 524 kbps      00:00:33.599    8 048 kbps      00:01:37.000    31 538 bytes    165 952 bytes   00:00:35.200

STREAM DIAGNOSTICS:

File            PID             Type            Codec           Language                Seconds                 Bitrate                 Bytes           Packets
----            ---             ----            -----           --------                --------------          --------------          -------------   -----
00008.M2TS      4113 (0x1011)   0x02            MPEG-2                                  120,920                 6 316                   95 466 200      520 612
00008.M2TS      4352 (0x1100)   0x81            AC3             eng (English)           120,920                 192                     2 906 112       18 920[/code]
<---- END FORUMS PASTE ---->

QUICK SUMMARY:

Disc Title:
Disc Size: 30 723 233 620 bytes
Protection: AACS
BD-Java: No
Playlist: 00005.MPLS
Size: 104 374 272 bytes
Length: 0:02:01
Total Bitrate: 6,90 Mbps
Video: MPEG-2 Video / 6308 kbps / 576i / 25 fps / 16:9
Audio: English / Dolby Digital Audio / 2.0 / 48 kHz / 192 kbps

********************
PLAYLIST: 00006.MPLS
********************

<--- BEGIN FORUMS PASTE --->
[code]Total   Video
Title                                                           Codec   Length  Movie Size      Disc Size       Bitrate Bitrate Main Audio Track                          Secondary Audio Track
-----                                                           ------  ------- --------------  --------------  ------- ------- ------------------                        ---------------------
00006.MPLS                                                      MPEG-2  0:01:40 88 737 792      30 723 233 620  7,10    6,50    DD AC3 2.0 192Kbps[/code]
[code]DISC INFO:

Disc Title:
Disc Size:      30 723 233 620 bytes
Protection:     AACS
BD-Java:        No
BDInfo:         0.5.3

PLAYLIST REPORT:

Name:                   00006.MPLS
Length:                 0:01:40 (h:m:s)
Size:                   88 737 792 bytes
Total Bitrate:          7,10 Mbps

VIDEO:

Codec                   Bitrate             Description
-----                   -------             -----------
MPEG-2 Video            6500 kbps           576i / 25 fps / 16:9

AUDIO:

Codec                           Language        Bitrate         Description
-----                           --------        -------         -----------
Dolby Digital Audio             English         192 kbps        2.0 / 48 kHz / 192 kbps

FILES:

Name            Time In         Length          Size            Total Bitrate
----            -------         ------          ----            -------------
00009.M2TS      0:00:00.000     0:01:40.040     88 737 792      7 096

CHAPTERS:

Number          Time In         Length          Avg Video Rate  Max 1-Sec Rate  Max 1-Sec Time  Max 5-Sec Rate  Max 5-Sec Time  Max 10Sec Rate  Max 10Sec Time  Avg Frame Size  Max Frame Size  Max Frame Time
------          -------         ------          --------------  --------------  --------------  --------------  --------------  --------------  --------------  --------------  --------------  --------------
1               0:00:00.000     0:01:40.040     6 500 kbps      7 780 kbps      00:00:56.760    6 741 kbps      00:01:22.080    6 632 kbps      00:01:17.160    32 500 bytes    127 688 bytes   00:00:31.760

STREAM DIAGNOSTICS:

File            PID             Type            Codec           Language                Seconds                 Bitrate                 Bytes           Packets
----            ---             ----            -----           --------                --------------          --------------          -------------   -----
00009.M2TS      4113 (0x1011)   0x02            MPEG-2                                  99,880                  6 510                   81 282 504      443 143
00009.M2TS      4352 (0x1100)   0x81            AC3             eng (English)           99,880                  192                     2 401 536       15 635[/code]
<---- END FORUMS PASTE ---->

QUICK SUMMARY:

Disc Title:
Disc Size: 30 723 233 620 bytes
Protection: AACS
BD-Java: No
Playlist: 00006.MPLS
Size: 88 737 792 bytes
Length: 0:01:40
Total Bitrate: 7,10 Mbps
Video: MPEG-2 Video / 6500 kbps / 576i / 25 fps / 16:9
Audio: English / Dolby Digital Audio / 2.0 / 48 kHz / 192 kbps

********************
PLAYLIST: 00002.MPLS
********************

<--- BEGIN FORUMS PASTE --->
[code]Total   Video
Title                                                           Codec   Length  Movie Size      Disc Size       Bitrate Bitrate Main Audio Track                          Secondary Audio Track
-----                                                           ------  ------- --------------  --------------  ------- ------- ------------------                        ---------------------
00002.MPLS                                                      MPEG-2  0:01:31 80 738 304      30 723 233 620  7,09    6,50    DD AC3 2.0 192Kbps[/code]
[code]DISC INFO:

Disc Title:
Disc Size:      30 723 233 620 bytes
Protection:     AACS
BD-Java:        No
BDInfo:         0.5.3

PLAYLIST REPORT:

Name:                   00002.MPLS
Length:                 0:01:31 (h:m:s)
Size:                   80 738 304 bytes
Total Bitrate:          7,09 Mbps

VIDEO:

Codec                   Bitrate             Description
-----                   -------             -----------
MPEG-2 Video            6500 kbps           576i / 25 fps / 16:9

AUDIO:

Codec                           Language        Bitrate         Description
-----                           --------        -------         -----------
Dolby Digital Audio             English         192 kbps        2.0 / 48 kHz / 192 kbps

FILES:

Name            Time In         Length          Size            Total Bitrate
----            -------         ------          ----            -------------
00003.M2TS      0:00:00.000     0:01:31.040     80 738 304      7 095

CHAPTERS:

Number          Time In         Length          Avg Video Rate  Max 1-Sec Rate  Max 1-Sec Time  Max 5-Sec Rate  Max 5-Sec Time  Max 10Sec Rate  Max 10Sec Time  Avg Frame Size  Max Frame Size  Max Frame Time
------          -------         ------          --------------  --------------  --------------  --------------  --------------  --------------  --------------  --------------  --------------  --------------
1               0:00:00.000     0:01:31.040     6 500 kbps      7 941 kbps      00:00:55.680    6 749 kbps      00:00:33.119    6 633 kbps      00:00:02.840    32 500 bytes    95 108 bytes    00:00:50.160

STREAM DIAGNOSTICS:

File            PID             Type            Codec           Language                Seconds                 Bitrate                 Bytes           Packets
----            ---             ----            -----           --------                --------------          --------------          -------------   -----
00003.M2TS      4113 (0x1011)   0x02            MPEG-2                                  90,880                  6 511                   73 970 004      403 207
00003.M2TS      4352 (0x1100)   0x81            AC3             eng (English)           90,880                  192                     2 184 960       14 225[/code]
<---- END FORUMS PASTE ---->

QUICK SUMMARY:

Disc Title:
Disc Size: 30 723 233 620 bytes
Protection: AACS
BD-Java: No
Playlist: 00002.MPLS
Size: 80 738 304 bytes
Length: 0:01:31
Total Bitrate: 7,09 Mbps
Video: MPEG-2 Video / 6500 kbps / 576i / 25 fps / 16:9
Audio: English / Dolby Digital Audio / 2.0 / 48 kHz / 192 kbps

[url=http://youpic.su/view.php?id=
<head><title>504 Gateway Time-out</title></head>
<body bgcolor="white">
<center><h1>504 Gateway Time-out</h1></center>
<hr><center>nginx</center>
</body>
</html>
][img]<html>
<head><title>504 Gateway Time-out</title></head>
<body bgcolor="white">
<center><h1>504 Gateway Time-out</h1></center>
<hr><centethumb_r>nginx</center>
</body>
</html>
[/img][/url] [url=http://youpic.su/view.php?id=
<head><title>504 Gateway Time-out</title></head>
<body bgcolor="white">
<center><h1>504 Gateway Time-out</h1></center>
<hr><center>nginx</center>
</body>
</html>
][img]<html>
<head><title>504 Gateway Time-out</title></head>
<body bgcolor="white">
<center><h1>504 Gateway Time-out</h1></center>
<hr><centethumb_r>nginx</center>
</body>
</html>
[/img][/url] [url=http://youpic.su/view.php?id=
<head><title>504 Gateway Time-out</title></head>
<body bgcolor="white">
<center><h1>504 Gateway Time-out</h1></center>
<hr><center>nginx</center>
</body>
</html>
][img]<html>
<head><title>504 Gateway Time-out</title></head>
<body bgcolor="white">
<center><h1>504 Gateway Time-out</h1></center>
<hr><centethumb_r>nginx</center>
</body>
</html>
[/img][/url] [url=http://youpic.su/view.php?id=
<head><title>504 Gateway Time-out</title></head>
<body bgcolor="white">
<center><h1>504 Gateway Time-out</h1></center>
<hr><center>nginx</center>
</body>
</html>
][img]<html>
<head><title>504 Gateway Time-out</title></head>
<body bgcolor="white">
<center><h1>504 Gateway Time-out</h1></center>
<hr><centethumb_r>nginx</center>
</body>
</html>
[/img][/url] [url=http://youpic.su/view.php?id=
<head><title>504 Gateway Time-out</title></head>
<body bgcolor="white">
<center><h1>504 Gateway Time-out</h1></center>
<hr><center>nginx</center>
</body>
</html>
][img]<html>
<head><title>504 Gateway Time-out</title></head>
<body bgcolor="white">
<center><h1>504 Gateway Time-out</h1></center>
<hr><centethumb_r>nginx</center>
</body>
</html>
[/img][/url] [url=http://youpic.su/view.php?id=
<head><title>504 Gateway Time-out</title></head>
<body bgcolor="white">
<center><h1>504 Gateway Time-out</h1></center>
<hr><center>nginx</center>
</body>
</html>
][img]<html>
<head><title>504 Gateway Time-out</title></head>
<body bgcolor="white">
<center><h1>504 Gateway Time-out</h1></center>
<hr><centethumb_r>nginx</center>
</body>
</html>
[/img][/url]

Трекер:  [ 19-Окт-2010 12:12 ]

  

Скачать .torrent

Размер .torrent файла 147 KB


Размер: 28.61 GB
Хэш (hash) релиза: 6f3f476fa489c88bc190e693c980fd84aa0d8ffe
Подписка на обновления:

Торренты, похожие на Ленинград скачать торрент

Форум Название Автор Размер S L Добавлен
Документальные фильмы и телепередачи ·· В осаде: Ленинград 1941 - 900 дней / Under Siege: Leningrad 1941 - The 900 Days (Holly Elson) [2005, Документальный, TVRip] Galfimbul 366639104350 MB 0 0 1525527401

16:36

5-Май-18

Документальные фильмы и телепередачи ·· Подвиг ради жизни (из цикла «872 дня Ленинграда») (4 серии из 4) [2013, Документальный, война, история, IPTVRip] Galfimbul 23030149122.14 GB 0 0 1520196219

23:43

4-Мар-18

Документальные фильмы и телепередачи ·· 872 дня Ленинграда (8 серий из 8) [2013, Документальный, война, история, SATRip] Galfimbul 45521571844.24 GB 0 0 1516599789

08:43

22-Янв-18

Документальные фильмы и телепередачи ·· Южный центр. Второе лицо Ленинграда (Олег Костин) [2009, документальный фильм, TVRip] Galfimbul 182356422174 MB 0 0 1501280213

01:16

29-Июл-17

Документальные фильмы и телепередачи ·· 872 дня Ленинграда (8 серий из 8) [2013, Документальный, военный, DVB] Galfimbul 60338319885.62 GB 0 0 1488730447

19:14

5-Мар-17

Российские сериалы ·· Ленинград / Серии: 1-4 из 4 ( Александр Буравский) [2007, драма, военный , SATRip-AVC] Galfimbul 25830598442.41 GB 0 0 1473589669

13:27

11-Сен-16

Спорт ·· Товарищеский матч 2016 | Ленинград - Питер [30.03.2016, Хоккей, WEBRip/1080p/СКА ТВ] Galfimbul 39767701873.7 GB 0 0 1459401501

08:18

31-Мар-16

Документальные фильмы и телепередачи ·· Города побратимы. Ленинград-Гавр (В Зарецкая) [1977, IPTVRip] Galfimbul 136213544130 MB 0 0 1438936803

11:40

7-Авг-15

PSP | Cериалы ·· [SERIAL4PSP] Ленинград 46 (Игорь Копылов) [Серии: 32+ послесловие (Фильм о фильме) из 32] [2014 г., Детектив, драма. HDTVRip] Galfimbul 87744253718.17 GB 0 0 1434464534

17:22

16-Июн-15

Спорт ·· Товарищеский матч 2015 | Чествование "СКА" | "Мы - чемпионы!" | Ленинград - Питер [21.04.2015, Хоккей, HDRip/720p/50 fps/H264/КХЛ HD] Galfimbul 44937174644.19 GB 0 0 1429774301

10:31

23-Апр-15

Спорт ·· Товарищеский матч 2015 | Чествование "СКА" | "Мы - чемпионы!" | Ленинград - Питер [21.04.2015, Хоккей, HDRip/XviD/КХЛ HD] Galfimbul 19191085941.79 GB 0 0 1429723965

20:32

22-Апр-15

Спорт ·· Товарищеский матч 2015 | Чествование "СКА" | "Мы - чемпионы!" | Ленинград - Питер [21.04.2015, Хоккей, HD/H264/КХЛ HD] Galfimbul 1450397872413.51 GB 0 0 1429709507

16:31

22-Апр-15

Российские сериалы ·· Ленинград 46 / Серии: 1-32+послесловие (Фильм о фильме) из 32 (Игорь Копылов) [2015, Детектив, SATRip-AVC] Galfimbul 1907754844217.77 GB 0 0 1429292034

20:33

17-Апр-15

Российские сериалы ·· Ленинград 46 / Серии: 1-32+ послесловие (Фильм о фильме) из 32 (Игорь Копылов) [2015, Детектив, HDTV 1080i] Galfimbul 10346361920096.36 GB 0 0 1429277537

16:32

17-Апр-15

Российские сериалы ·· Ленинград 46 / Серии: 1-32+послесловие (Фильм о фильме) из 32 (Игорь Копылов) [2015, Детектив, HDTVRip 720p] Galfimbul 5506821430151.29 GB 0 0 1429277534

16:32

17-Апр-15

Российские сериалы ·· Ленинград 46 / Серии: 1-32+послесловие (Фильм о фильме) из 32 (Игорь Копылов) [2015, Детектив, DVB-AVC] Galfimbul 3241699660430.19 GB 0 0 1429268537

14:02

17-Апр-15

Российские сериалы ·· Ленинград 46 / Серии: 1-32+Послесловие из 32 (Игорь Копылов) [2015, Детектив, WEBRip-AVC] Galfimbul 2525797158523.52 GB 0 0 1429255966

10:32

17-Апр-15

Российские сериалы ·· Ленинград 46 / Серии: 1-32 из 32 + послесловие (Игорь Копылов) [2015, Драма, SATRip] Galfimbul 1905468906817.75 GB 0 0 1429191165

16:32

16-Апр-15

Российские сериалы ·· Ленинград 46 / Серии: 1-2 из 32 (Игорь Копылов) [2015, Детектив, WEBRip-AVC] Galfimbul 15408353141.44 GB 0 0 1427206189

17:09

24-Мар-15

Российские сериалы ·· Ленинград 46 / Серии: 1-2 из 32 (Игорь Копылов) [2015, Детектив, SATRip-AVC] Galfimbul 12680274841.18 GB 0 0 1427187740

12:02

24-Мар-15

pipez

унылое гавно а не фильм

Хотите добавить комментарий к записи скачать торрент Ленинград

!Обратная связь