Watch movie | Peter Rabbit (2018) Watch Peter Rabbit (2018) Full Movie Online, Free Download Peter Rabbit (2018) Full Movie, Peter Rabbit (2018) Full Movie Download in HD Mp4 Mobile Movie. Feature adaptation of Beatrix Potter's classic tale of a rebellious rabbit trying to sneak into a farmer's vegetable garden. | Aldis Hodge

Скачать через торрент музыку Nanci Griffith - Little Love Affairs - 1988, FLAC бесплатно без регистрации torrent

Статистика раздачи
Размер:  193 MB   |    Зарегистрирован:  4 года 8 месяцев   |    .torrent скачан:  154 раза   |   
Раздают:  1  
   
загрузка...
 
Автор Сообщение

Galfimbul

avatar Galfimbul


Nanci Griffith / Little Love Affairs

Жанр: country, folk
Страна-производитель диска: USA
Год издания: 1988
Издатель (лейбл): MCA
Номер по каталогу: DMCF 3413
Страна: USA
Аудиокодек: FLAC (*.flac)
Тип рипа: tracks+.cue
Битрейт аудио: lossless
Продолжительность: 36:30
Источник (релизер): Internet
Наличие сканов в содержимом раздачи: нет
Треклист:

1. "Anyone Can Be Somebody''s Fool" (Nanci Griffith) – 2:39
2."I Knew Love" (Roger Brown) – 3:17
3."Never Mind" (Harlan Howard) – 3:42
4."Love Wore a Halo (Back Before the War)" (Griffith) – 3:23
5. "So Long Ago" (Griffith) – 4:10
6."Gulf Coast Highway" [duet with Mac McAnally] (James Hooker, Griffith, Danny Flowers) – 3:06
7."Little Love Affairs" (Griffith, Hooker) – 3:08
8. "I Wish It Would Rain" (Griffith) – 2:38
9. "Outbound Plane" (Griffith, Tom Russell) – 2:39
10. "I Would Change My Life" (Robert Earl Keen, Jr) – 3:08
11. "Sweet Dreams Will Come" [duet with John Stewart] (John Stewart) – 4:25
AUDIOCHECKER v1.2 - by Dester - [email protected]~~~~~~~~~~~~~~~~~

01 -===- C:\Torrent\Мое\Nanci Griffith...Little Love Affairs(1988)\Nanci Griffith - 01 - Anyone Can Be Somebody''s Fool.flac Extracted successfully Conclusion: This track looks like CDDA with probability 100%

02 -===- C:\Torrent\Мое\Nanci Griffith...Little Love Affairs(1988)\Nanci Griffith - 02 - I Knew Love.flac Extracted successfully Conclusion: This track looks like CDDA with probability 100%

03 -===- C:\Torrent\Мое\Nanci Griffith...Little Love Affairs(1988)\Nanci Griffith - 03 - Never Mind.flac Extracted successfully Conclusion: This track looks like CDDA with probability 99%

04 -===- C:\Torrent\Мое\Nanci Griffith...Little Love Affairs(1988)\Nanci Griffith - 04 - Love Wore a Halo (Back Before the War).flac Extracted successfully Conclusion: This track looks like MPEG with probability 79%

05 -===- C:\Torrent\Мое\Nanci Griffith...Little Love Affairs(1988)\Nanci Griffith - 05 - So Long Ago.flac Extracted successfully Conclusion: This track looks like CDDA with probability 100%

06 -===- C:\Torrent\Мое\Nanci Griffith...Little Love Affairs(1988)\Nanci Griffith - 06 - Gulf Coast Highway.flac Extracted successfully Conclusion: This track looks like CDDA with probability 100%

07 -===- C:\Torrent\Мое\Nanci Griffith...Little Love Affairs(1988)\Nanci Griffith - 07 - Little Love Affairs.flac Extracted successfully Conclusion: This track looks like CDDA with probability 100%

08 -===- C:\Torrent\Мое\Nanci Griffith...Little Love Affairs(1988)\Nanci Griffith - 08 - I Wish It Would Rain.flac Extracted successfully Conclusion: This track looks like CDDA with probability 100%

09 -===- C:\Torrent\Мое\Nanci Griffith...Little Love Affairs(1988)\Nanci Griffith - 09 - Outbound Plane.flac Extracted successfully Conclusion: This track looks like MPEG with probability 95%

10 -===- C:\Torrent\Мое\Nanci Griffith...Little Love Affairs(1988)\Nanci Griffith - 10 - I Would Change My Life.flac Extracted successfully Conclusion: This track looks like MPEG with probability 73%

11 -===- C:\Torrent\Мое\Nanci Griffith...Little Love Affairs(1988)\Nanci Griffith - 11 - Sweet Dreams Will Come.flac Extracted successfully Conclusion: This track looks like MPEG with probability 95%
REM COMMENT "CUETools generated dummy CUE sheet"FILE "Nanci Griffith - 01 - Anyone Can Be Somebody''s Fool.flac" WAVE TRACK 01 AUDIO INDEX 01 00:00:00FILE "Nanci Griffith - 02 - I Knew Love.flac" WAVE TRACK 02 AUDIO INDEX 01 00:00:00FILE "Nanci Griffith - 03 - Never Mind.flac" WAVE TRACK 03 AUDIO INDEX 01 00:00:00FILE "Nanci Griffith - 04 - Love Wore a Halo (Back Before the War).flac" WAVE TRACK 04 AUDIO INDEX 01 00:00:00FILE "Nanci Griffith - 05 - So Long Ago.flac" WAVE TRACK 05 AUDIO INDEX 01 00:00:00FILE "Nanci Griffith - 06 - Gulf Coast Highway.flac" WAVE TRACK 06 AUDIO INDEX 01 00:00:00FILE "Nanci Griffith - 07 - Little Love Affairs.flac" WAVE TRACK 07 AUDIO INDEX 01 00:00:00FILE "Nanci Griffith - 08 - I Wish It Would Rain.flac" WAVE TRACK 08 AUDIO INDEX 01 00:00:00FILE "Nanci Griffith - 09 - Outbound Plane.flac" WAVE TRACK 09 AUDIO INDEX 01 00:00:00FILE "Nanci Griffith - 10 - I Would Change My Life.flac" WAVE TRACK 10 AUDIO INDEX 01 00:00:00FILE "Nanci Griffith - 11 - Sweet Dreams Will Come.flac" WAVE TRACK 11 AUDIO INDEX 01 00:00:00


Трекер:  [ 26-Сен-2013 18:32 ]

  

Скачать .torrent

Размер .torrent файла 16 KB


Размер: 193 MB
Хэш (hash) релиза: e9681fc46f6445b206b72821148cb10c824fabaf

Еще никто не оставлял запись к записи скачать торрент Nanci Griffith - Little Love Affairs - 1988, FLAC . Будь первым!

!Обратная связь