Fantastique | Karin Krog With John Surman - Freestyle (1985) | Are You There God? It's Me, Peter

Скачать через торрент [VIDEO] Мама Mama бесплатно русская версия torrent активатор

Статистика раздачи
Размер:  1.03 GB   |    Зарегистрирован:  4 года 9 месяцев   |    .torrent скачан:  47 раз   |   
Раздают:  1  
   
загрузка...
 
Автор Сообщение

Galfimbul

avatar Galfimbul


Мама
Mama

Год выпуска: 2013
Страна: Испания, Канада, Toma 78, De Milo
Жанр: Ужасы, фэнтези, триллер
Продолжительность: 01:40:06
Перевод: Профессиональный дублированный [iTunes]
Оригинальная дорожка: Есть
Cубтитры: Нет
Режиссер: Андрес Мускетти / Andrés Muschiett
В ролях: Джессика Честейн, Николай Костер-Валдау, Меган Чарпентье, Дэниэл Кэш, Джейн Моффат, Хавьер Боте, Джейден Грег, Сидни Кросс
Описание: В заброшенной хижине в чаще леса найдены две девочки. Таинственным образом они прожили в пустом доме пять лет. Найденных сирот забирают единственные родственники, молодая супружеская пара. Но девочки не одиноки, у них есть мама, и она приходит из тьмы…

Качество: HDRip (Рип с BDRip 720p)
Формат: MP4
Видео кодек: H.264
Аудио кодек: AAC
Видео: 960х520 (1.85:1), 1200 kbps, 23.976 fps
Аудио 1: Русский, 2 ch, 48 kHz, 128 kbps [DUB, iTunes]
Аудио 2: Английский, 2 ch, 48 kHz, 128 kbps [Original]
* Когда Аннабель копается в компьютере доктора Дрейфусса, в названии папки с его исследованиями есть опечатка — «Reasearch» (а правильно «Research»).
* Когда маленькая Виктория впервые заходит в хижину, она шагает по снегу, который прилипает к ее ногам, и можно заметить, что на самом деле это белый ковер.
* У врача ноутбук Sony Vaio (с операционной системой Windows), однако, когда Аннебель берет его, чтобы увидеть результаты исследований, то там оказывается Mac OS.
* Когда Аннабель слышит, как девочки играют, она идет в их комнату, чтобы сказать, что уже поздно и пора ложиться спать, но на улице еще светло. В фильме также есть еще около 3-х сцен, в которых по сюжету должна быть ночь, а за окнами на улице день.
* Когда Лили уговаривает Викторию пойти к Маме, положение ее одеяла меняется после смены кадра.
* Лукас арендует автомобиль в конторе под названием «Enterprise», но у машины не видно штрих-кода на окне. Все машины этой компании обладают штрих-кодами для ускорения процедуры регистрации.
General
Complete name : [VIDEO] Mama.2013.HDRip.x264.960x(semen_52-TNC).mp4
Format : MPEG-4
Format profile : Base Media
Codec ID : isom
File size : 1.03 GiB
Duration : 1h 40mn
Overall bit rate mode : Variable
Overall bit rate : 1 468 Kbps
Movie name : [VIDEO] Mama 2013 HDRip x264 960x(semen_52-TNC)
ContentType : Short Film
Encoded date : UTC 2013-09-24 02:10:51
Tagged date : UTC 2013-09-24 02:13:56
Writing application : MkvToMp4 version 0.221a
Comment : Rip bysemen_52-TNC

Video
ID : 1
Format : AVC
Format/Info : Advanced Video Codec
Format profile : [email protected]
Format settings, CABAC : Yes
Format settings, ReFrames : 8 frames
Codec ID : avc1
Codec ID/Info : Advanced Video Coding
Duration : 1h 40mn
Bit rate : 1 200 Kbps
Maximum bit rate : 23.1 Mbps
Width : 960 pixels
Height : 520 pixels
Display aspect ratio : 1.85:1
Frame rate mode : Constant
Frame rate : 23.976 fps
Color space : YUV
Chroma subsampling : 4:2:0
Bit depth : 8 bits
Scan type : Progressive
Bits/(Pixel*Frame) : 0.100
Stream size : 859 MiB (82%)
Writing library : x264 core 125 r2200 999b753
Encoding settings : cabac=1 / ref=8 / deblock=1:0:0 / analyse=0x3:0x133 / me=umh / subme=9 / psy=1 / psy_rd=1.00:0.00 / mixed_ref=1 / me_range=16 / chroma_me=1 / trellis=2 / 8x8dct=1 / cqm=0 / deadzone=21,11 / fast_pskip=0 / chroma_qp_offset=-2 / threads=9 / lookahead_threads=1 / sliced_threads=0 / nr=0 / decimate=1 / interlaced=0 / bluray_compat=0 / constrained_intra=0 / bframes=3 / b_pyramid=2 / b_adapt=2 / b_bias=0 / direct=3 / weightb=1 / open_gop=0 / weightp=2 / keyint=250 / keyint_min=25 / scenecut=40 / intra_refresh=0 / rc_lookahead=90 / rc=2pass / mbtree=1 / bitrate=1200 / ratetol=1.0 / qcomp=0.60 / qpmin=0 / qpmax=69 / qpstep=4 / cplxblur=20.0 / qblur=0.5 / ip_ratio=1.40 / aq=1:1.00
Language : English
Encoded date : UTC 2013-09-24 02:10:51
Tagged date : UTC 2013-09-24 02:11:36

Audio #1
ID : 2
Format : AAC
Format/Info : Advanced Audio Codec
Format profile : LC
Codec ID : 40
Duration : 1h 39mn
Bit rate mode : Variable
Bit rate : 128 Kbps
Maximum bit rate : 135 Kbps
Channel count : 2 channels
Channel positions : Front: L R
Sampling rate : 48.0 KHz
Compression mode : Lossy
Stream size : 91.5 MiB (9%)
Language : Russian
Encoded date : UTC 2013-09-24 02:11:15
Tagged date : UTC 2013-09-24 02:11:36

Audio #2
ID : 3
Format : AAC
Format/Info : Advanced Audio Codec
Format profile : LC
Codec ID : 40
Duration : 1h 40mn
Bit rate mode : Variable
Bit rate : 128 Kbps
Maximum bit rate : 135 Kbps
Channel count : 2 channels
Channel positions : Front: L R
Sampling rate : 48.0 KHz
Compression mode : Lossy
Stream size : 91.7 MiB (9%)
Language : English
Encoded date : UTC 2013-09-24 02:11:25
Tagged date : UTC 2013-09-24 02:11:36


Трекер:  [ 26-Сен-2013 14:09 ]

  

Скачать .torrent

Размер .torrent файла 10 KB


Размер: 1.03 GB
Хэш (hash) релиза: 6f4cc9229641fcbef6efaf5603007ab8c7883b66

Еще никто не оставлял запись к записи скачать торрент [VIDEO] Мама Mama . Будь первым!

!Обратная связь