blank face | Team Edge | Восемь бусин на тонкой ниточке [01-02 из 02] (2017) SATRip-AVC

Скачать через торрент [MULT] Букашки: Невероятные приключения в микромире Minuscule, 1 сезон, 78 серий бесплатно русская версия torrent активатор

Статистика раздачи
Размер:  1.23 GB   |    Зарегистрирован:  4 года 9 месяцев   |    .torrent скачан:  58 раз   |   
Раздают:  1  
   
загрузка...
 
Автор Сообщение

Galfimbul

avatar Galfimbul


Букашки: Невероятные приключения в микромире / Minuscule

Год выпуска: 2007

Страна: Франция
Жанр: Мультфильм, Комедия
Продолжительность: 78х5мин
Перевод: Профессиональный (названия серий)
Русские субтитры: нет
Режиссер: Томас Забо/ Thomas Szabo, Хелен Жиро / Helene Giraud

Описание: Сборник короткометражных мультфильмов, описывающих забавные случаи из жизни насекомых. Гусеница пытается перебраться через ручей, муха и паук - найти компромисс, улитка помогает сороконожке перейти дорогу, жук-нарцисс любуется на себя в зеркало, цикады устраивают настоящий концерт, а за обыкновенный чупа-чупс ведутся жестокие бои.

Качество: DVDRip (Исходник)
Формат: 3GP
Видео кодек: XviD
Аудио кодек: AAC
Видео: Xvid, 320x240, 4:3, 350 kbps, 25 fps
Аудио: AAC, 128 kbps, 48 kHz, 2 ch
01. Божья коровка
02. Муравьи
03. История любви
04. Осиные баталии
05. Некрасивый
06. Гусеницы в Париже
07. Сороконожки
08. Гусеница у ручья
09. Трусишка
10. Конвой
11. Сон улитки
12. Соня
13. Порыв ветра
14. Сиеста
15. Бой жуков-навозников
16. Песня цикады
17. Божьи коровки и стрекозы
18. Мост над рекой
19. Бездомная
20. Мечта гусеницы
01. Слепень
02. Ц-ц-цеппелин
03. Все вместе
04. Пикник
05. Последний ужин
06. Икота
07. Катапульта
08. Тотем
09. Гусеница, которая мечтала об океане
10. Городская гусеница и деревенские бабочки
11. Несгибаемая
12. Поход за леденцом
13. Стрекозы
14. Жвачка
15. Адский муравейник
16. Яблоко согласия
17. Лентяй
18. Рози
19. Осиный патруль
20. Добраться до ядрышка
01. Дожди и ливни
02. Блюз навозного жука
03. Истерия на Хеллоуин
04. Цикада из Бразилии
05. Ломоть сыра
06. Жестокий мир
07. Самовлюбленный жук
08. История с салатом
09. Непоседы
10. Бессонная ночь
11. Ночь на свободе
12. Торпеда
13. Высокие скорости
14. Слишком шустрый
15. Безумная муха
16. Хорошее образование
17. То самое зернышко
18. Комарик
19. Побег
01. Тишина!
02. Выхода нет
03. Неудачи
04. Рождество
05. Паутинки
06. Из жестянки на волю!
07. Будь здоров!
08. Несбывшиеся желания
09. По воле ветра
10. Бананы
11. Операция «Лапша»
12. Елка
13. Комариные будни
14. Вторая тень
15. Безумные гонки
16. На старт, внимание, марш!
17. Кто прыгнет дальше
18. Помидорка-черри
19. Муха-пришелец
Общее
Полное имя : D:\Раздачи\Букашки - Невероятные приключения в микромире\Выпуск 01 - Веселые гонки\01.Божья коровка.3gp
Формат : MPEG-4
Профиль формата : 3GPP Media Release 5
Идентификатор кодека : 3gp5
Размер файла : 17,2 Мбайт
Продолжительность : 5 м. 2 с.
Режим общего битрейта : Переменный
Общий поток : 477 Кбит/сек
Дата кодирования : UTC 2013-09-25 02:12:23
Дата пометки : UTC 2013-09-25 02:12:23

Видео
Идентификатор : 1
Формат : MPEG-4 Visual
Профиль формата : Advanced [email protected]
Параметр BVOP формата : Нет
Параметр QPel формата : Нет
Параметр GMC формата : Без точки перехода
Параметр матрицы формата : Default (H.263)
Идентификатор кодека : 20
Продолжительность : 5 м. 2 с.
Вид битрейта : Переменный
Битрейт : 346 Кбит/сек
Максимальный битрейт : 1219 Кбит/сек
Ширина : 320 пикселей
Высота : 240 пикселей
Соотношение сторон : 4:3
Режим частоты кадров : Переменный
Частота кадров : 25,000 кадров/сек
Минимальная частота кадров : 8,333 кадров/сек
Максимальная частота кадров : 25,000 кадров/сек
Цветовое пространство : YUV
Субдискретизация насыщенности : 4:2:0
Битовая глубина : 8 бит
Тип развёртки : Прогрессивная
Метод сжатия : С потерями
Бит/(Пиксели*Кадры) : 0.180
Размер потока : 12,5 Мбайт (73%)
Библиотека кодирования : XviD 1.2.1 (UTC 2008-12-04)
Дата кодирования : UTC 2013-09-25 02:12:23
Дата пометки : UTC 2013-09-25 02:12:24

Аудио
Идентификатор : 2
Формат : AAC
Формат/Информация : Advanced Audio Codec
Профиль формата : LC
Идентификатор кодека : 40
Продолжительность : 5 м. 2 с.
Вид битрейта : Переменный
Битрейт : 128 Кбит/сек
Максимальный битрейт : 145 Кбит/сек
Каналы : 2 канала
Расположение каналов : Front: L R
Частота : 48,0 КГц
Метод сжатия : С потерями
Размер потока : 4,62 Мбайт (27%)
Дата кодирования : UTC 2013-09-25 02:12:24
Дата пометки : UTC 2013-09-25 02:12:24


Трекер:  [ 25-Сен-2013 15:37 ]

  

Скачать .torrent

Размер .torrent файла 22 KB


Размер: 1.23 GB
Хэш (hash) релиза: acf6f219274f5b82925f675e22da612930b5bfc1

bot

Топик был перенесен из форума Мобильные устройства в форум КПК

Galfimbul

Хотите добавить комментарий к записи скачать торрент [MULT] Букашки: Невероятные приключения в микромире Minuscule, 1 сезон, 78 серий

!Обратная связь