رامي جمال - مفيش منها New Single | Télécharger Part 6 | Lisa Rinna Has Some Major Grievances About These 3 Foods

Скачать через торрент [VIDEO] Транс Trance бесплатно русская версия torrent активатор

Статистика раздачи
Размер:  349 MB   |    Зарегистрирован:  4 года 9 месяцев   |    .torrent скачан:  29 раз   |   
Раздают:  1  
   
загрузка...
 
Автор Сообщение

Galfimbul

avatar Galfimbul


Транс / Trance

Год выпуска: 2013

Страна: Великобритания, Франция
Жанр: триллер, драма, криминал, детектив
Продолжительность: 1:41:00
Перевод: Профессиональный (полное дублирование)
Русские субтитры: нет
Режиссер: Дэнни Бойл / Danny Boyle

В ролях: Джеймс МакЭвой, Розарио Доусон, Венсан Кассель, Дэнни Сапани, Мэттью Кросс, Вахаб Ахмед Шейх, Марк Полтимор, Таппенс Мидлтон, Саймон Кунц, Майкл Шэйффер, Тони Джайавардена, Винсент Монтуэль, Джей Раджани, Спенсер Уидлинг, Гуршаран Чаггар, Эдвард Райсинг, Кимберли Барриос, Сэм Крид, Джоаккино Джим Куффаро, Шонн Грегори, Силан Гунасилан, Ли Николас Харрис, Костас Катсикис, Симона Либман, Алекс Роузман, Келвин Уайз

Описание: Аукционер Саймон не в силах противостоять искушению — вступает в сговор с бандой грабителей и организует похищение уникального лота стоимостью в миллионы долларов. Однако налет оканчивается не совсем так, как он предполагал вначале. Аукционера оглушают ударом тупого предмета по голове, в результате которого он теряет какие бы то ни было воспоминания о том, что произошло.
Разумеется, он также забывает, куда спрятал ценную картину. Пытками добиться ответа от ничего не понимающего Саймона не удается. Тогда главарь банды решает нанять психотерапевта, чтобы она смогла выудить ценную информацию из поврежденного мозга заложника. По мере того, как девушка пробивается сквозь нейронную защиту, ставки растут как на дрожжах. Границы между страстью и жестокостью, реальностью и вымыслом тускнеют и вовсе готовы испариться.

Качество: HDRip
Формат: 3GP
Видео кодек: XviD
Аудио кодек: AAC
Видео: XviD, 320x136, 2,35:1, 351 kbps, 23,976 fps
Аудио: AAC, 128 kbps, 48 kHz, 2 ch
Общее
Полное имя : D:\Раздачи\Транс.3gp
Формат : MPEG-4
Профиль формата : 3GPP Media Release 5
Идентификатор кодека : 3gp5
Размер файла : 349 Мбайт
Продолжительность : 1 ч. 41 м.
Режим общего битрейта : Переменный
Общий поток : 481 Кбит/сек
Дата кодирования : UTC 2013-09-21 14:34:59
Дата пометки : UTC 2013-09-21 14:34:59

Видео
Идентификатор : 1
Формат : MPEG-4 Visual
Профиль формата : Advanced [email protected]
Параметр BVOP формата : Нет
Параметр QPel формата : Нет
Параметр GMC формата : Без точки перехода
Параметр матрицы формата : Default (H.263)
Идентификатор кодека : 20
Продолжительность : 1 ч. 41 м.
Вид битрейта : Переменный
Битрейт : 351 Кбит/сек
Максимальный битрейт : 2179 Кбит/сек
Ширина : 320 пикселей
Высота : 136 пикселей
Соотношение сторон : 2,35:1
Режим частоты кадров : Переменный
Частота кадров : 23,976 кадра/сек
Минимальная частота кадров : 0,533 кадр/сек
Максимальная частота кадров : 23,976 кадра/сек
Цветовое пространство : YUV
Субдискретизация насыщенности : 4:2:0
Битовая глубина : 8 бит
Тип развёртки : Прогрессивная
Метод сжатия : С потерями
Бит/(Пиксели*Кадры) : 0.336
Размер потока : 254 Мбайт (73%)
Библиотека кодирования : XviD 1.2.1 (UTC 2008-12-04)
Дата кодирования : UTC 2013-09-21 14:34:59
Дата пометки : UTC 2013-09-21 14:35:08

Аудио
Идентификатор : 2
Формат : AAC
Формат/Информация : Advanced Audio Codec
Профиль формата : LC
Идентификатор кодека : 40
Продолжительность : 1 ч. 41 м.
Вид битрейта : Переменный
Битрейт : 128 Кбит/сек
Максимальный битрейт : 182 Кбит/сек
Каналы : 2 канала
Расположение каналов : Front: L R
Частота : 48,0 КГц
Метод сжатия : С потерями
Размер потока : 92,7 Мбайт (27%)
Дата кодирования : UTC 2013-09-21 14:35:06
Дата пометки : UTC 2013-09-21 14:35:08


Трекер:  [ 25-Сен-2013 15:37 ]

  

Скачать .torrent

Размер .torrent файла 14 KB


Размер: 349 MB
Хэш (hash) релиза: 5f737fad85c8001d6bf0a0817a70997cadec60c0

bot

Топик был перенесен из форума Мобильные устройства в форум КПК

Galfimbul

Хотите добавить комментарий к записи скачать торрент [VIDEO] Транс Trance

!Обратная связь