Esdec Book
Mobile Suit Gundam: Iron-Blooded Orphans - Season 2

Скачать через торрент [VIDEO] Стукач Snitch бесплатно русская версия torrent активатор

Статистика раздачи
Размер:  1018 MB   |    Зарегистрирован:  4 года 6 месяцев   |    .torrent скачан:  30 раз   |   
Раздают:  1  
   
загрузка...
 
Автор Сообщение

Galfimbul

avatar Galfimbul


Стукач
Snitch

Год выпуска: 2013
Страна: США, ОАЭ, Exclusive Media Group, Imagenation Abu Dhabi FZ, Participant Media, Spitfire Pictures
Жанр: Боевик, триллер, драма
Продолжительность: 01:52:18
Перевод: Профессиональный дублированный [BD CEE]
Оригинальная дорожка: Есть
Cубтитры: Нет
Режиссер: Рик Роман Во / Ric Roman Waugh
В ролях: Дуэйн Джонсон, Бэрри Пеппер, Джон Бернтал, Сьюзен Сарандон, Майкл К. Уильямс, Рафи Гаврон, Мелина Канакаредес, Надин Веласкес, Бенджамин Брэтт, Лела Лорен, Дж.Д. Пардо, Дэвид Харбор, Хэролд Перрино, Кьяра Кампос, Джеймс Аллен МакКьюн, Таня Боллинджер, Эшлинн Росс, Спенсер Миллер, Джэйсон Флойд, Бен Бланкеншип, Ким Джексон, Джейсон Дуглас, Дарнелл Троттер, Т. Джоэль Смит, Шун Хагинс, Дотер Сайкес, Дорис Моргадо, Кэрри Лазар, Ричард Кебрал, Джейм Меделес, Одесса Сайкес, Дуглас М. Гриффин, Керри Кехилл, Шэрон Лондон, Дэйн Родс, Эдрик Браун, Джудд Лорманд, Джо Нэммерс, Сара Эйльц, Джей Амор
Описание: За продажу наркотиков сыну простого провинциального работяги грозит большой срок тюрьмы. Ради его спасения отец идет на сделку с полицией. Теперь он должен внедриться в самое сердце наркомафии.

Качество: HDRip (Рип с BDRip 720p)
Формат: MP4
Видео кодек: H.264
Аудио кодек: AAC
Видео: 960х400 (2.40:1), 1000 kbps, 23.976 fps
Аудио 1: Русский, 2 ch, 48 kHz, 128 kbps [DUB, BD CEE]
Аудио 2: Английский, 2 ch, 48 kHz, 128 kbps [Original]
x264 [info]: frame I:1748 Avg QP:14.52 size: 37007 PSNR Mean Y:49.37 U:51.89 V:52.39 Avg:50.08 Global:49.67
x264 [info]: frame P:48223 Avg QP:17.61 size: 9707 PSNR Mean Y:47.75 U:50.90 V:51.39 Avg:48.58 Global:47.99
x264 [info]: frame B:111573 Avg QP:21.17 size: 2771 PSNR Mean Y:47.05 U:50.81 V:51.31 Avg:47.99 Global:47.31
x264 [info]: consecutive B-frames: 3.6% 5.4% 22.8% 68.2%
x264 [info]: mb I I16..4: 14.9% 61.9% 23.2%
x264 [info]: mb P I16..4: 2.6% 7.5% 1.3% P16..4: 48.5% 14.1% 12.8% 0.6% 0.2% skip:12.6%
x264 [info]: mb B I16..4: 0.1% 0.6% 0.1% B16..8: 45.6% 5.6% 1.1% direct: 2.8% skip:44.1% L0:43.6% L1:51.0% BI: 5.4%
x264 [info]: 8x8 transform intra:65.4% inter:61.7%
x264 [info]: direct mvs spatial:98.5% temporal:1.5%
x264 [info]: coded y,uvDC,uvAC intra: 68.7% 65.6% 34.9% inter: 12.5% 10.7% 1.0%
x264 [info]: i16 v,h,dc,p: 32% 18% 9% 42%
x264 [info]: i8 v,h,dc,ddl,ddr,vr,hd,vl,hu: 10% 12% 6% 9% 13% 12% 14% 11% 13%
x264 [info]: i4 v,h,dc,ddl,ddr,vr,hd,vl,hu: 10% 11% 6% 11% 15% 12% 14% 10% 13%
x264 [info]: i8c dc,h,v,p: 38% 30% 19% 13%
x264 [info]: Weighted P-Frames: Y:3.1% UV:1.6%
x264 [info]: ref P L0: 56.2% 7.0% 15.8% 6.9% 5.1% 3.9% 3.1% 1.7% 0.4% 0.0%
x264 [info]: ref B L0: 78.0% 11.5% 5.5% 2.2% 1.5% 0.9% 0.4%
x264 [info]: ref B L1: 92.4% 7.6%
x264 [info]: SSIM Mean Y:0.9888964 (19.545db)
x264 [info]: PSNR Mean Y:47.284 U:50.846 V:51.349 Avg:48.187 Global:47.522 kb/s:999.77

x264 [total]: encoded 161544 frames, 22.73 fps, 999.77 kb/s
General
Complete name : [VIDEO] Snitch.2013.HDRip.x264.960x(semen_52-TNC).mp4
Format : MPEG-4
Format profile : Base Media
Codec ID : isom
File size : 1 018 MiB
Duration : 1h 52mn
Overall bit rate mode : Variable
Overall bit rate : 1 268 Kbps
Movie name : [VIDEO] Snitch 2013 HDRip x264 960x(semen_52-TNC)
ContentType : Short Film
Encoded date : UTC 2013-09-23 15:30:01
Tagged date : UTC 2013-09-23 15:32:07
Writing application : MkvToMp4 version 0.221a
Comment : Rip by semen_52-TNC

Video
ID : 1
Format : AVC
Format/Info : Advanced Video Codec
Format profile : [email protected]
Format settings, CABAC : Yes
Format settings, ReFrames : 8 frames
Codec ID : avc1
Codec ID/Info : Advanced Video Coding
Duration : 1h 52mn
Bit rate : 1 000 Kbps
Maximum bit rate : 6 671 Kbps
Width : 960 pixels
Height : 400 pixels
Display aspect ratio : 2.40:1
Frame rate mode : Constant
Frame rate : 23.976 fps
Color space : YUV
Chroma subsampling : 4:2:0
Bit depth : 8 bits
Scan type : Progressive
Bits/(Pixel*Frame) : 0.109
Stream size : 803 MiB (79%)
Writing library : x264 core 125 r2200 999b753
Encoding settings : cabac=1 / ref=8 / deblock=1:0:0 / analyse=0x3:0x133 / me=umh / subme=9 / psy=1 / psy_rd=1.00:0.00 / mixed_ref=1 / me_range=16 / chroma_me=1 / trellis=2 / 8x8dct=1 / cqm=0 / deadzone=21,11 / fast_pskip=0 / chroma_qp_offset=-2 / threads=9 / lookahead_threads=1 / sliced_threads=0 / nr=0 / decimate=1 / interlaced=0 / bluray_compat=0 / constrained_intra=0 / bframes=3 / b_pyramid=2 / b_adapt=2 / b_bias=0 / direct=3 / weightb=1 / open_gop=0 / weightp=2 / keyint=250 / keyint_min=25 / scenecut=40 / intra_refresh=0 / rc_lookahead=90 / rc=2pass / mbtree=1 / bitrate=1000 / ratetol=1.0 / qcomp=0.60 / qpmin=0 / qpmax=69 / qpstep=4 / cplxblur=20.0 / qblur=0.5 / ip_ratio=1.40 / aq=1:1.00
Language : English
Encoded date : UTC 2013-09-23 15:30:01
Tagged date : UTC 2013-09-23 15:30:34

Audio #1
ID : 2
Format : AAC
Format/Info : Advanced Audio Codec
Format profile : LC
Codec ID : 40
Duration : 1h 52mn
Bit rate mode : Variable
Bit rate : 128 Kbps
Maximum bit rate : 135 Kbps
Channel count : 2 channels
Channel positions : Front: L R
Sampling rate : 48.0 KHz
Compression mode : Lossy
Stream size : 103 MiB (10%)
Language : Russian
Encoded date : UTC 2013-09-23 15:30:18
Tagged date : UTC 2013-09-23 15:30:34

Audio #2
ID : 3
Format : AAC
Format/Info : Advanced Audio Codec
Format profile : LC
Codec ID : 40
Duration : 1h 52mn
Bit rate mode : Variable
Bit rate : 128 Kbps
Maximum bit rate : 135 Kbps
Channel count : 2 channels
Channel positions : Front: L R
Sampling rate : 48.0 KHz
Compression mode : Lossy
Stream size : 103 MiB (10%)
Language : English
Encoded date : UTC 2013-09-23 15:30:26
Tagged date : UTC 2013-09-23 15:30:34


Трекер:  [ 24-Сен-2013 12:52 ]

  

Скачать .torrent

Размер .torrent файла 20 KB


Размер: 1018 MB
Хэш (hash) релиза: 5aeec9398f1c6fe1b956253af838b29e8a0cdaa2

bot

Топик был перенесен из форума Мобильные устройства в форум КПК

Galfimbul

Хотите добавить комментарий к записи скачать торрент [VIDEO] Стукач Snitch

!Обратная связь