Elbitz.net | EZ | E-Learning | 2018 Review | Punjabi Movies | Добавить cartes-plans.fr в поисковую строку

Скачать через торрент [VIDEO] 21 и больше 21 & Over бесплатно русская версия torrent активатор

Статистика раздачи
Размер:  844 MB   |    Зарегистрирован:  4 года 9 месяцев   |    .torrent скачан:  31 раз   |   
Раздают:  1  
   
загрузка...
 
Автор Сообщение

Galfimbul

avatar Galfimbul


21 и больше
21 & Over

Год выпуска: 2013
Страна: США, Mandeville Films, Relativity Media, SkyLand Entertainment, Virgin Produced
Жанр: Комедия
Продолжительность: 01:33:07
Перевод: Профессиональный дублированный [BD]
Оригинальная дорожка: Есть
Cубтитры: Нет
Режиссер: Джон Лукас / Jon Lucas, Скотт Мур / Scott Moore
В ролях: Скайлар Эстин, Сара Райт, Майлз Теллер, Джонатан Кельтц, Джастин Чон, Сара Райт, Джонатан Кельтц, Франсуа Чау, Расселл Ходжкинсон, Дэниэл Буко, Расселл Меркадо, Джози Лор
Описание: Двое друзей подбивают третьего отметить его 21-ый день рождения прямо накануне важного экзамена в медицинский колледж. Никто не замечает, как одна кружка пива превращается в море выпивки, а вечеринка — в бурное и незабываемое приключение с музыкой и девчонками. И где же они окажутся утром?

Качество: HDRip (Рип с BDRip 720p)
Формат: MP4
Видео кодек: H.264
Аудио кодек: AAC
Видео: 960х400 (2.40:1), 1000 kbps, 23.976 fps
Аудио 1: Русский, 2 ch, 48 kHz, 128 kbps [DUB, BD]
Аудио 2: Английский, 2 ch, 48 kHz, 128 kbps [Original]
* Джастин Чон на самом деле на десять лет старше своего героя (на момент выхода фильма).
* Роль Франсуа Чау — доктор Чанг — это дань уважения доктору Пьеру Чангу, персонажу из телесериала «Остаться в живых» (2004), которого также играл Чау.
x264 [info]: frame I:1996 Avg QP:16.24 size: 35947 PSNR Mean Y:47.80 U:50.07 V:50.53 Avg:48.47 Global:48.10
x264 [info]: frame P:38222 Avg QP:19.45 size: 9515 PSNR Mean Y:46.30 U:49.29 V:49.62 Avg:47.08 Global:46.35
x264 [info]: frame B:93726 Avg QP:22.77 size: 2804 PSNR Mean Y:45.63 U:49.22 V:49.55 Avg:46.51 Global:45.74
x264 [info]: consecutive B-frames: 3.1% 4.7% 18.0% 74.2%
x264 [info]: mb I I16..4: 17.1% 61.5% 21.4%
x264 [info]: mb P I16..4: 2.4% 6.8% 1.2% P16..4: 46.8% 12.9% 13.5% 0.7% 0.2% skip:15.4%
x264 [info]: mb B I16..4: 0.2% 0.6% 0.1% B16..8: 43.9% 5.9% 1.5% direct: 2.3% skip:45.6% L0:42.7% L1:51.6% BI: 5.7%
x264 [info]: 8x8 transform intra:64.1% inter:65.0%
x264 [info]: direct mvs spatial:96.4% temporal:3.6%
x264 [info]: coded y,uvDC,uvAC intra: 69.0% 73.6% 45.3% inter: 12.1% 12.8% 1.5%
x264 [info]: i16 v,h,dc,p: 40% 16% 9% 35%
x264 [info]: i8 v,h,dc,ddl,ddr,vr,hd,vl,hu: 9% 8% 5% 10% 15% 14% 14% 12% 12%
x264 [info]: i4 v,h,dc,ddl,ddr,vr,hd,vl,hu: 10% 8% 4% 11% 15% 14% 13% 11% 12%
x264 [info]: i8c dc,h,v,p: 39% 24% 20% 17%
x264 [info]: Weighted P-Frames: Y:1.6% UV:0.8%
x264 [info]: ref P L0: 57.6% 7.6% 14.6% 6.7% 4.8% 3.8% 3.0% 1.7% 0.3% 0.0%
x264 [info]: ref B L0: 81.1% 9.9% 4.7% 1.9% 1.3% 0.8% 0.4%
x264 [info]: ref B L1: 93.3% 6.7%
x264 [info]: SSIM Mean Y:0.9851871 (18.294db)
x264 [info]: PSNR Mean Y:45.852 U:49.254 V:49.584 Avg:46.704 Global:45.933 kb/s:999.89

x264 [total]: encoded 133944 frames, 26.98 fps, 999.89 kb/s
General
Complete name : [VIDEO] 21.&.Over.2013.HDRip.x264.960x(semen_52-TNC).mp4
Format : MPEG-4
Format profile : Base Media
Codec ID : isom
File size : 844 MiB
Duration : 1h 33mn
Overall bit rate mode : Variable
Overall bit rate : 1 268 Kbps
Movie name : [VIDEO] 21 & Over 2013 HDRip x264 960x(semen_52-TNC)
ContentType : Short Film
Encoded date : UTC 2013-09-24 01:39:37
Tagged date : UTC 2013-09-24 01:45:10
Writing application : MkvToMp4 version 0.221a
Comment : Rip by semen_52-TNC

Video
ID : 1
Format : AVC
Format/Info : Advanced Video Codec
Format profile : [email protected]
Format settings, CABAC : Yes
Format settings, ReFrames : 8 frames
Codec ID : avc1
Codec ID/Info : Advanced Video Coding
Duration : 1h 33mn
Bit rate : 1 000 Kbps
Maximum bit rate : 6 551 Kbps
Width : 960 pixels
Height : 400 pixels
Display aspect ratio : 2.40:1
Frame rate mode : Constant
Frame rate : 23.976 fps
Color space : YUV
Chroma subsampling : 4:2:0
Bit depth : 8 bits
Scan type : Progressive
Bits/(Pixel*Frame) : 0.109
Stream size : 666 MiB (79%)
Writing library : x264 core 125 r2200 999b753
Encoding settings : cabac=1 / ref=8 / deblock=1:0:0 / analyse=0x3:0x133 / me=umh / subme=9 / psy=1 / psy_rd=1.00:0.00 / mixed_ref=1 / me_range=16 / chroma_me=1 / trellis=2 / 8x8dct=1 / cqm=0 / deadzone=21,11 / fast_pskip=0 / chroma_qp_offset=-2 / threads=9 / lookahead_threads=1 / sliced_threads=0 / nr=0 / decimate=1 / interlaced=0 / bluray_compat=0 / constrained_intra=0 / bframes=3 / b_pyramid=2 / b_adapt=2 / b_bias=0 / direct=3 / weightb=1 / open_gop=0 / weightp=2 / keyint=250 / keyint_min=25 / scenecut=40 / intra_refresh=0 / rc_lookahead=90 / rc=2pass / mbtree=1 / bitrate=1000 / ratetol=1.0 / qcomp=0.60 / qpmin=0 / qpmax=69 / qpstep=4 / cplxblur=20.0 / qblur=0.5 / ip_ratio=1.40 / aq=1:1.00
Language : English
Encoded date : UTC 2013-09-24 01:39:37
Tagged date : UTC 2013-09-24 01:40:35

Audio #1
ID : 2
Format : AAC
Format/Info : Advanced Audio Codec
Format profile : LC
Codec ID : 40
Duration : 1h 33mn
Bit rate mode : Variable
Bit rate : 128 Kbps
Maximum bit rate : 135 Kbps
Channel count : 2 channels
Channel positions : Front: L R
Sampling rate : 48.0 KHz
Compression mode : Lossy
Stream size : 85.2 MiB (10%)
Language : Russian
Encoded date : UTC 2013-09-24 01:39:56
Tagged date : UTC 2013-09-24 01:40:35

Audio #2
ID : 3
Format : AAC
Format/Info : Advanced Audio Codec
Format profile : LC
Codec ID : 40
Duration : 1h 33mn
Bit rate mode : Variable
Bit rate : 128 Kbps
Maximum bit rate : 135 Kbps
Channel count : 2 channels
Channel positions : Front: L R
Sampling rate : 48.0 KHz
Compression mode : Lossy
Stream size : 85.2 MiB (10%)
Language : English
Encoded date : UTC 2013-09-24 01:40:15
Tagged date : UTC 2013-09-24 01:40:35


Трекер:  [ 24-Сен-2013 12:52 ]

  

Скачать .torrent

Размер .torrent файла 17 KB


Размер: 844 MB
Хэш (hash) релиза: 6936a93fcce698b8467f300fcece79c7e523e978

Торренты, похожие на [VIDEO] 21 и больше 21 & Over скачать торрент

Форум Название Автор Размер S L Добавлен
Видео (Фильмы/Клипы) ·· [VIDEO] 21 и больше / 21 & Over (Джон Лукас / Jon Lucas, Скотт Мур / Scott Moore) [2013г, США, комедия, DVDRip][MP4, 480x] Galfimbul 430142152410 MB 0 0 1366966317

11:51

26-Апр-13

Видео (Фильмы/Клипы) ·· [VIDEO] 21 и больше / 21 & Over (Джон Лукас, Скотт Мур / Jon Lucas, Scott Moore) [2013, комедия, BDRip] [MP4, 1280x] Galfimbul 21402061581.99 GB 0 0 1451561232

14:27

31-Дек-15

bot

Топик был перенесен из форума Мобильные устройства в форум КПК

Galfimbul

Хотите добавить комментарий к записи скачать торрент [VIDEO] 21 и больше 21 & Over

!Обратная связь