Aplicativo APKPure | James Gleason | 83. Camelphat Ft Elderbrook Cola mp3

Скачать через торрент Блич: Неистовство Заточённого Меча Bleach: The Sealed Sword Frenzy бесплатно Аниме Все серии на русском torrent

Статистика раздачи
Размер:  354 MB   |    Зарегистрирован:  4 года 9 месяцев   |    .torrent скачан:  54 раза   |   
Раздают:  1  
   
загрузка...
 
Автор Сообщение

Polarnik

avatar Polarnik


Блич: Неистовство Заточённого Меча / Bleach: The Sealed Sword Frenzy
Страна: Япония
Год выпуска: 2006 г.
Жанр: приключения, фэнтези
Тип: OVA
Продолжительность: ~ 00:34:11
Режиссер: Абэ Нориюки
Студия: Studio Pierrot

Описание: Шинигами Баисин, который был давным-давно запечатан "Обществом Душ" освобождается. В роковой день Ичиго наталкивается на него...

Качество: DVDRip
Тип релиза: Без хардсаба
Формат видео: MKV
Видео: MPEG4 (H264), 640x480 (4:3), ~1 000 Kbps 23.976fps, 0.136 bit/pixel
Аудио: Vorbis 48 kHz 2ch stereo ~192 Kbps Язык Русский (в составе контейнера) ; Озвучка: двухголосая (Devdoki & [email protected]])
Аудио 2: Vorbis 48 kHz 2ch stereo ~256 Kbps Язык Японский

Сэмпл: http://rusfolder.tv/view_video/gf2aml4lichc
GeneralUnique ID : 207884943719868585719239778586374440051 (0x9C652F0E27A0949289A67836B3140473)Complete name : H:\Torrent\[AniPower]Bleach-The-Sealed-Sword-Frenzy-OVA-2[RUS-JAP][640x480][Devdoki & [email protected]].mkvFormat : MatroskaFormat version : Version 2File size : 354 MiBDuration : 34mn 11sOverall bit rate mode : VariableOverall bit rate : 1 447 KbpsMovie name : Bleach - The Sealed Sword FrenzyEncoded date : UTC 2012-10-31 19:20:24Writing application : mkvmerge v4.0.0 (''The Stars were mine'') сборка от Jun 6 2010 16:18:42Writing library : libebml v1.0.0 + libmatroska v1.0.0

VideoID : 1Format : AVCFormat/Info : Advanced Video CodecFormat profile : [email protected] settings, CABAC : YesFormat settings, ReFrames : 2 framesCodec ID : V_MPEG4/ISO/AVCDuration : 34mn 11sBit rate : 1 000 KbpsWidth : 640 pixelsHeight : 480 pixelsDisplay aspect ratio : 4:3Frame rate : 23.976 fpsOriginal frame rate : 11.988 fpsColor space : YUVChroma subsampling : 4:2:0Bit depth : 8 bitsScan type : ProgressiveBits/(Pixel*Frame) : 0.136Stream size : 237 MiB (67%)Writing library : x264 core 42 svn-388MEncoding settings : cabac=1 / ref=1 / deblock=1:0:0 / analyse=0x3:0x133 / me=esa / subme=6 / brdo=0 / mixed_ref=0 / me_range=32 / chroma_me=1 / trellis=0 / 8x8dct=1 / cqm=0 / chroma_qp_offset=0 / slices=1 / bframes=2 / b_pyramid=0 / b_adapt=1 / b_bias=0 / direct=2 / wpredb=1 / keyint=250 / keyint_min=25 / scenecut=45 / pass=2 / bitrate=1000 / ratetol=1.0 / rceq=''blurCplx^(1-qComp)'' / qcomp=0.60 / qpmin=10 / qpmax=51 / qpstep=4 / cplxblur=20.0 / qblur=0.5 / ip_ratio=1.40 / pb_ratio=1.50Default : YesForced : No

Audio #1ID : 2Format : VorbisFormat settings, Floor : 1Codec ID : A_VORBISDuration : 34mn 11sBit rate mode : VariableBit rate : 192 KbpsChannel(s) : 2 channelsSampling rate : 48.0 KHzCompression mode : LossyDelay relative to video : -83msStream size : 47.0 MiB (13%)Writing library : libVorbis 1.0 (UTC 2002-07-17)Language : RussianDefault : YesForced : No

Audio #2ID : 3Format : VorbisFormat settings, Floor : 1Codec ID : A_VORBISDuration : 34mn 11sBit rate mode : VariableBit rate : 256 KbpsMinimum bit rate : 196 KbpsMaximum bit rate : 350 KbpsChannel(s) : 2 channelsSampling rate : 48.0 KHzCompression mode : LossyDelay relative to video : -83msStream size : 62.6 MiB (18%)Writing library : libVorbis 1.0 (UTC 2002-07-17)Language : JapaneseDefault : NoForced : No


Трекер:  [ 23-Сен-2013 09:52 ]

  

Скачать .torrent

Размер .torrent файла 14 KB


Размер: 354 MB
Хэш (hash) релиза: 75681181c7f84bbc7a3b18d9da2decedad90214e
Подписка на обновления:

Еще никто не оставлял запись к записи скачать торрент Блич: Неистовство Заточённого Меча Bleach: The Sealed Sword Frenzy . Будь первым!

!Обратная связь