Tera And Play Listen | Inversion of Control und Dependency Injection | Программы для архитекторов и строителей

Скачать через торрент [VIDEO] Тревожный вызов The Call бесплатно русская версия torrent активатор

Статистика раздачи
Размер:  919 MB   |    Зарегистрирован:  4 года 9 месяцев   |    .torrent скачан:  27 раз   |   
Раздают:  1  
   
загрузка...
 
Автор Сообщение

Galfimbul

avatar Galfimbul


Тревожный вызов
The Call

Год выпуска: 2013
Страна: США, Apotheosis Media Group, Emergency Films, Troika Pictures
Жанр: Триллер, криминал
Продолжительность: 01:33:53
Перевод: Профессиональный дублированный [R5]
Оригинальная дорожка: Есть
Cубтитры: Нет
Режиссер: Брэд Андерсон / Brad Anderson
В ролях: Холли Берри, Абигайль Бреслин, Моррис Честнат, Майкл Империоли, Рома Маффия, Майкл Экланд, Эви Томпсон, Стивен Уильямс, Джустина Мачадо, Хосе Зунига, Тара Платт, Дженна Ламия, Ракефет Абергел, Майкл Линстрот
Описание: История про оператора колл-центра 911, куда поступает звонок от девочки-подростка, ставшей жертвой маньяка. Героине предстоит столкнуться со своими кошмарами, чтобы спасти девушку...

Качество: HDRip (Рип с BDRip 720p)
Формат: MP4
Видео кодек: H.264
Аудио кодек: AAC
Видео: 960x536 (16:9), 1100 kbps, 23.976 fps
Аудио 1: Русский, 2 ch, 48 kHz, 128 kbps [Dub, R5]
Аудио 2: Английский, 2 ch, 48 kHz, 128 kbps [Original]
* Холли Берри была взята на главную роль, когда режиссером фильма еще был Джоэл Шумахер. Затем Шумахер покинул проект, и на его место пришел Брэд Андерсон. Берри была вынуждена отказаться от своей роли из-за несогласованности расписаний съемок, но после переноса даты выхода фильма она все же вернулась.
x264 [info]: frame I:1612 Avg QP:18.07 size: 37954 PSNR Mean Y:46.65 U:52.12 V:51.70 Avg:47.63 Global:47.15
x264 [info]: frame P:39219 Avg QP:21.18 size: 10742 PSNR Mean Y:44.96 U:52.94 V:52.44 Avg:46.05 Global:45.27
x264 [info]: frame B:94240 Avg QP:23.30 size: 3101 PSNR Mean Y:44.30 U:53.39 V:52.83 Avg:45.45 Global:44.64
x264 [info]: consecutive B-frames: 2.8% 4.6% 24.1% 68.5%
x264 [info]: mb I I16..4: 22.9% 61.7% 15.4%
x264 [info]: mb P I16..4: 3.2% 7.1% 0.9% P16..4: 49.6% 9.5% 13.4% 0.4% 0.1% skip:15.8%
x264 [info]: mb B I16..4: 0.2% 0.6% 0.1% B16..8: 44.2% 4.2% 0.9% direct: 2.3% skip:47.6% L0:44.2% L1:52.1% BI: 3.7%
x264 [info]: 8x8 transform intra:63.3% inter:71.0%
x264 [info]: direct mvs spatial:97.7% temporal:2.3%
x264 [info]: coded y,uvDC,uvAC intra: 62.0% 60.4% 24.9% inter: 10.9% 13.8% 0.6%
x264 [info]: i16 v,h,dc,p: 32% 19% 8% 42%
x264 [info]: i8 v,h,dc,ddl,ddr,vr,hd,vl,hu: 9% 7% 5% 11% 17% 14% 15% 11% 11%
x264 [info]: i4 v,h,dc,ddl,ddr,vr,hd,vl,hu: 11% 10% 4% 10% 15% 14% 14% 10% 12%
x264 [info]: i8c dc,h,v,p: 40% 27% 19% 15%
x264 [info]: Weighted P-Frames: Y:2.7% UV:1.2%
x264 [info]: ref P L0: 53.9% 8.6% 16.9% 6.8% 4.8% 3.7% 3.0% 1.6% 0.5% 0.0%
x264 [info]: ref B L0: 79.0% 11.3% 5.2% 2.0% 1.3% 0.8% 0.4%
x264 [info]: ref B L1: 93.0% 7.0%
x264 [info]: SSIM Mean Y:0.9780211 (16.580db)
x264 [info]: PSNR Mean Y:44.521 U:53.244 V:52.701 Avg:45.650 Global:44.839 kb/s:1100.09

x264 [total]: encoded 135071 frames, 15.28 fps, 1100.09 kb/s
General
Complete name : [VIDEO] The.Call.2013.HDRip.x264.960x(semen_52-TNC).mp4
Format : MPEG-4
Format profile : Base Media
Codec ID : isom
File size : 919 MiB
Duration : 1h 34mn
Overall bit rate mode : Variable
Overall bit rate : 1 366 Kbps
Movie name : [VIDEO] The Call 2013 HDRip x264 960x(semen_52-TNC)
ContentType : Short Film
Encoded date : UTC 2013-09-22 06:03:49
Tagged date : UTC 2013-09-22 06:07:37
Writing application : MkvToMp4 version 0.221a
Comment : Rip by semen_52-TNC

Video
ID : 1
Format : AVC
Format/Info : Advanced Video Codec
Format profile : [email protected]
Format settings, CABAC : Yes
Format settings, ReFrames : 8 frames
Codec ID : avc1
Codec ID/Info : Advanced Video Coding
Duration : 1h 33mn
Bit rate : 1 100 Kbps
Maximum bit rate : 7 219 Kbps
Width : 960 pixels
Height : 536 pixels
Display aspect ratio : 16:9
Frame rate mode : Constant
Frame rate : 23.976 fps
Color space : YUV
Chroma subsampling : 4:2:0
Bit depth : 8 bits
Scan type : Progressive
Bits/(Pixel*Frame) : 0.089
Stream size : 739 MiB (80%)
Writing library : x264 core 125 r2200 999b753
Encoding settings : cabac=1 / ref=8 / deblock=1:0:0 / analyse=0x3:0x133 / me=umh / subme=9 / psy=1 / psy_rd=1.00:0.00 / mixed_ref=1 / me_range=16 / chroma_me=1 / trellis=2 / 8x8dct=1 / cqm=0 / deadzone=21,11 / fast_pskip=0 / chroma_qp_offset=-2 / threads=9 / lookahead_threads=1 / sliced_threads=0 / nr=0 / decimate=1 / interlaced=0 / bluray_compat=0 / constrained_intra=0 / bframes=3 / b_pyramid=2 / b_adapt=2 / b_bias=0 / direct=3 / weightb=1 / open_gop=0 / weightp=2 / keyint=250 / keyint_min=25 / scenecut=40 / intra_refresh=0 / rc_lookahead=50 / rc=2pass / mbtree=1 / bitrate=1100 / ratetol=1.0 / qcomp=0.60 / qpmin=0 / qpmax=69 / qpstep=4 / cplxblur=20.0 / qblur=0.5 / ip_ratio=1.40 / aq=1:1.00
Language : English
Encoded date : UTC 2013-09-22 06:03:49
Tagged date : UTC 2013-09-22 06:06:55

Audio #1
ID : 2
Format : AAC
Format/Info : Advanced Audio Codec
Format profile : LC
Codec ID : 40
Duration : 1h 33mn
Bit rate mode : Variable
Bit rate : 128 Kbps
Maximum bit rate : 135 Kbps
Channel count : 2 channels
Channel positions : Front: L R
Sampling rate : 48.0 KHz
Compression mode : Lossy
Stream size : 86.0 MiB (9%)
Language : Russian
Encoded date : UTC 2013-09-22 06:04:50
Tagged date : UTC 2013-09-22 06:06:55

Audio #2
ID : 3
Format : AAC
Format/Info : Advanced Audio Codec
Format profile : LC
Codec ID : 40
Duration : 1h 34mn
Bit rate mode : Variable
Bit rate : 128 Kbps
Maximum bit rate : 135 Kbps
Channel count : 2 channels
Channel positions : Front: L R
Sampling rate : 48.0 KHz
Compression mode : Lossy
Stream size : 86.1 MiB (9%)
Language : English
Encoded date : UTC 2013-09-22 06:06:06
Tagged date : UTC 2013-09-22 06:06:55


Трекер:  [ 24-Сен-2013 12:52 ]

  

Скачать .torrent

Размер .torrent файла 18 KB


Размер: 919 MB
Хэш (hash) релиза: 98b8602d4b0efe901f2752e3f1db773f49fd79ae

bot

Топик был перенесен из форума Мобильные устройства в форум КПК

Galfimbul

Хотите добавить комментарий к записи скачать торрент [VIDEO] Тревожный вызов The Call

!Обратная связь