Télécharger Part 5 | 1x70 Dragon Ball Super | Watch Movie

Скачать через торрент [VIDEO] Зловещие мертвецы: Чёрная книга Evil Dead бесплатно русская версия torrent активатор

Статистика раздачи
Размер:  828 MB   |    Зарегистрирован:  4 года 9 месяцев   |    .torrent скачан:  34 раза   |   
Раздают:  1  
   
загрузка...
 
Автор Сообщение

Galfimbul

avatar Galfimbul


Зловещие мертвецы: Чёрная книга
Evil Dead

Год выпуска: 2013
Страна: США, FilmDistrict, Ghost House Pictures, TriStar Pictures
Жанр: Ужасы
Продолжительность: 01:31:18
Перевод: Профессиональный дублированный [BD CEE]
Оригинальная дорожка: Есть
Cубтитры: Нет
Режиссер: Федерико Альварес / Federico Alvarez
В ролях: Джейн Леви, Шайло Фернандес, Лу Тэйлор Пуччи, Джессика Лукас, Элизабет Блэкмор, Феникс Коннолли, Джим МакЛарти, Сиан Дэвис, Стефен Баттерворф, Карл Виллетц
Описание: Мать Дэвида и Мии очень тяжело умирала в психиатрической больнице и рядом с нею находилась только Миа, тогда ещё подросток. Прошло уже несколько лет, а она никак не могла забыть кошмарные предсмертные дни их буйно-помешанной матери и, с возрастом, Миа "подсела" на наркотики. Но после передозировки, когда врачи едва спасли её, она решает прекратить принимать наркотики. Среди её друзей была медсестра, решившая, что сумеет помочь ей без стационара. Для этого они: Миа, медсестра, Дэвид, его невеста и их лучший друг, - отправляются в старый, давно заброшенный дом Мии и Дэвида, находившийся в лесу. Добравшись они увидели, что дверь в дом была взломана, а в подвале они обнаружили атрибуты, используемые в чёрной магии и старинную книгу, которую их крайне заинтересовавшийся друг, начал немедленно изучать. Сумев проявить скрытые слова, он прочитал их вслух, чем невольно вызвал жуткого демона...

Качество: HDRip (Рип с BDRip 720p)
Формат: MP4
Видео кодек: H.264
Аудио кодек: AAC
Видео: 960x408 (2.35:1), 1000 kbps, 23.976 fps
Аудио 1: Русский, 2 ch, 48 kHz, 128 kbps [Dub, BD CEE]
Аудио 2: Английский, 2 ch, 48 kHz, 128 kbps [Original]
* Если сложить первые буквы имен главных героев, то получится слово «demon» («демон»): Дэвид (David), Эрик (Eric), Мия (Mia), Оливия (Olivia) и Натали (Natalie).
* Изначально роль Мии должна была исполнять Лили Коллинз, однако она выбыла из проекта из-за несовпадения рабочих графиков. Ходили слухи, что капризная актриса просто не захотела портить свою фильмографию ролью наркоманки.
* Для одной из героинь команда специалистов по пластическому гриму приготовила пять различных ручных протезов, которые демонстрировали разные стадии ее преображения.
* Фильм стал полнометражным дебютом Федерико Альвареса. Для режиссера проект стал осуществлением детской мечты. Ему предоставили неограниченную свободу и позволили снимать свой фильм так, как он сочтет нужным.
* Чтобы сохранить классическую атмосферу 1981 года, Альварес пытался использовать по большей части физические спецэффекты, воздерживаясь от компьютерной графики там, где было возможно.
* Альварес поразил продюсеров своим подходом к съемке и любовью к различным эффектам. Режиссер был убежден, что с помощью необычных ракурсов съемки и нестандартного передвижения камеры он сможет добиться требуемого накала страстей и аутентичности.
* Для съемки сцен с одержимыми демонами героями режиссер пригласил профессионального хореографа. Тот помог актерам двигаться по возможности более реалистично.
* Элизабет Блэкмор, играющая роль Натали, первой прошла пробы на роль.
* Для съемок фильма были построены две идентичные хижины. Первая хижина была построена в настоящем лесу. Точную копию соорудили в павильоне, поскольку сложный пластический грим нельзя было снимать на натуре.
* По словам супервайзера по физическим спецэффектам Джейсона Дьюри, на съемках фильма было израсходовано около 25 000 литров бутафорской крови и около 300 литров рвотной жидкости.
* Джиллиан Джейкобс пробовалась на роль Мии, но проиграла Лили Коллинз. Позже Коллинз покинула проект, и в итоге роль отошла Джейн Леви.
* Агнес Бракнер и Тора Бёрч пробовались на роль Натали.
* Джерни Смоллетт пробовалась на роль Оливии.
* В одной сцене показывают карты, разложенные на столе. Они выложены в том же порядке, как и в оригинальном фильме «Зловещие мертвецы» (1981).
* В сцене, где разорванное ожерелье находят у хижины, можно заметить, что оно сложено в форме черепа.
x264 [info]: frame I:1387 Avg QP:16.69 size: 35901 PSNR Mean Y:47.30 U:51.81 V:52.07 Avg:48.33 Global:47.68
x264 [info]: frame P:39089 Avg QP:20.15 size: 9828 PSNR Mean Y:45.54 U:50.79 V:50.83 Avg:46.63 Global:45.59
x264 [info]: frame B:90876 Avg QP:23.28 size: 2761 PSNR Mean Y:44.83 U:50.77 V:50.73 Avg:46.00 Global:44.87
x264 [info]: consecutive B-frames: 3.6% 5.3% 21.9% 69.2%
x264 [info]: mb I I16..4: 22.8% 62.4% 14.8%
x264 [info]: mb P I16..4: 3.5% 7.6% 0.9% P16..4: 45.6% 11.4% 12.8% 0.7% 0.3% skip:17.3%
x264 [info]: mb B I16..4: 0.2% 0.8% 0.1% B16..8: 41.0% 4.8% 1.1% direct: 2.7% skip:49.2% L0:43.4% L1:51.6% BI: 5.0%
x264 [info]: 8x8 transform intra:63.9% inter:67.1%
x264 [info]: direct mvs spatial:97.0% temporal:3.0%
x264 [info]: coded y,uvDC,uvAC intra: 63.2% 57.6% 24.3% inter: 13.7% 13.2% 1.1%
x264 [info]: i16 v,h,dc,p: 50% 10% 6% 34%
x264 [info]: i8 v,h,dc,ddl,ddr,vr,hd,vl,hu: 7% 5% 5% 11% 17% 15% 15% 12% 12%
x264 [info]: i4 v,h,dc,ddl,ddr,vr,hd,vl,hu: 8% 5% 5% 11% 17% 15% 14% 12% 13%
x264 [info]: i8c dc,h,v,p: 45% 24% 18% 13%
x264 [info]: Weighted P-Frames: Y:10.7% UV:5.2%
x264 [info]: ref P L0: 55.5% 9.1% 15.4% 6.7% 4.7% 3.6% 2.8% 1.6% 0.5% 0.0%
x264 [info]: ref B L0: 77.1% 12.4% 5.5% 2.2% 1.5% 0.9% 0.4%
x264 [info]: ref B L1: 92.6% 7.4%
x264 [info]: SSIM Mean Y:0.9797778 (16.942db)
x264 [info]: PSNR Mean Y:45.065 U:50.788 V:50.774 Avg:46.212 Global:45.099 kb/s:1000.06

x264 [total]: encoded 131352 frames, 26.68 fps, 1000.06 kb/s
General
Complete name : [VIDEO] Evil.Dead.2013.HDRip.x264.960x(semen_52-TNC).mp4
Format : MPEG-4
Format profile : Base Media
Codec ID : isom
File size : 828 MiB
Duration : 1h 31mn
Overall bit rate mode : Variable
Overall bit rate : 1 268 Kbps
Movie name : [VIDEO] Evil Dead 2013 HDRip x264 960x(semen_52-TNC)
ContentType : Short Film
Encoded date : UTC 2013-09-22 08:35:09
Tagged date : UTC 2013-09-22 08:36:58
Writing application : MkvToMp4 version 0.221a
Comment : Rip by semen_52-TNC

Video
ID : 1
Format : AVC
Format/Info : Advanced Video Codec
Format profile : [email protected]
Format settings, CABAC : Yes
Format settings, ReFrames : 8 frames
Codec ID : avc1
Codec ID/Info : Advanced Video Coding
Duration : 1h 31mn
Bit rate : 1 000 Kbps
Maximum bit rate : 7 509 Kbps
Width : 960 pixels
Height : 400 pixels
Display aspect ratio : 2.40:1
Frame rate mode : Constant
Frame rate : 23.976 fps
Color space : YUV
Chroma subsampling : 4:2:0
Bit depth : 8 bits
Scan type : Progressive
Bits/(Pixel*Frame) : 0.109
Stream size : 653 MiB (79%)
Writing library : x264 core 125 r2200 999b753
Encoding settings : cabac=1 / ref=8 / deblock=1:0:0 / analyse=0x3:0x133 / me=umh / subme=9 / psy=1 / psy_rd=1.00:0.00 / mixed_ref=1 / me_range=16 / chroma_me=1 / trellis=2 / 8x8dct=1 / cqm=0 / deadzone=21,11 / fast_pskip=0 / chroma_qp_offset=-2 / threads=9 / lookahead_threads=1 / sliced_threads=0 / nr=0 / decimate=1 / interlaced=0 / bluray_compat=0 / constrained_intra=0 / bframes=3 / b_pyramid=2 / b_adapt=2 / b_bias=0 / direct=3 / weightb=1 / open_gop=0 / weightp=2 / keyint=250 / keyint_min=25 / scenecut=40 / intra_refresh=0 / rc_lookahead=90 / rc=2pass / mbtree=1 / bitrate=1000 / ratetol=1.0 / qcomp=0.60 / qpmin=0 / qpmax=69 / qpstep=4 / cplxblur=20.0 / qblur=0.5 / ip_ratio=1.40 / aq=1:1.00
Language : English
Encoded date : UTC 2013-09-22 08:35:09
Tagged date : UTC 2013-09-22 08:35:44

Audio #1
ID : 2
Format : AAC
Format/Info : Advanced Audio Codec
Format profile : LC
Codec ID : 40
Duration : 1h 31mn
Bit rate mode : Variable
Bit rate : 128 Kbps
Maximum bit rate : 135 Kbps
Channel count : 2 channels
Channel positions : Front: L R
Sampling rate : 48.0 KHz
Compression mode : Lossy
Stream size : 83.6 MiB (10%)
Language : Russian
Encoded date : UTC 2013-09-22 08:35:27
Tagged date : UTC 2013-09-22 08:35:44

Audio #2
ID : 3
Format : AAC
Format/Info : Advanced Audio Codec
Format profile : LC
Codec ID : 40
Duration : 1h 31mn
Bit rate mode : Variable
Bit rate : 128 Kbps
Maximum bit rate : 135 Kbps
Channel count : 2 channels
Channel positions : Front: L R
Sampling rate : 48.0 KHz
Compression mode : Lossy
Stream size : 83.6 MiB (10%)
Language : English
Encoded date : UTC 2013-09-22 08:35:35
Tagged date : UTC 2013-09-22 08:35:44


Трекер:  [ 24-Сен-2013 12:52 ]

  

Скачать .torrent

Размер .torrent файла 16 KB


Размер: 828 MB
Хэш (hash) релиза: fba1e3fa0a3464621e5e8a87acc4586c5d0d4078

bot

Топик был перенесен из форума Мобильные устройства в форум КПК

Galfimbul

Хотите добавить комментарий к записи скачать торрент [VIDEO] Зловещие мертвецы: Чёрная книга Evil Dead

!Обратная связь