Street Fighter the animated series | Boku no Hero Academia (My Hero Academia) S1 | 720p | BD | Dual Audio | Barfuß ins Bett

Скачать через торрент [VIDEO] Охотники на гангстеров Gangster Squad бесплатно русская версия torrent активатор

Статистика раздачи
Размер:  1.1 GB   |    Зарегистрирован:  4 года 9 месяцев   |    .torrent скачан:  52 раза   |   
Раздают:  1  
   
загрузка...
 
Автор Сообщение

Galfimbul

avatar Galfimbul


Охотники на гангстеров
Gangster Squad

Год выпуска: 2013
Страна: США, Langley Park Productions, Lin Pictures, Village Roadshow Pictures
Жанр: Боевик, триллер, драма, криминал
Продолжительность: 01:52:55
Перевод: Русский - Профессиональный дублированный [BD CEE]
//////..//////Украинский - Профессиональный дублированный [BD CEE]
Оригинальная дорожка: Есть
Cубтитры: Нет
Режиссер: Рубен Флейшер / Ruben Fleischer
В ролях: Джош Бролин, Райан Гослинг, Ник Нолти, Эмма Стоун, Энтони Маки, Джованни Рибизи, Майкл Пенья, Роберт Патрик, Шон Пенн, Холт МакКэллани
Описание: Лос-Анджелес, 1949 год. Уроженец Бруклина, жестокий главарь банды Микки Коэн держит город в ежовых рукавицах, собирая «грязные» деньги от торговли наркотиками, оружием и проституции, и — если все пойдет, как надо, — к Западу от Чикаго мышь не пискнет без его ведома. Защищают его не только его же головорезы, но и находящиеся у него «на крючке» полиция и политики. Этого хватит, чтобы запугать даже самых смелых, закаленных улицей копов… кроме, пожалуй, небольшой тайной группы сотрудников полицейского департамента Лос-Анджелеса во главе с сержантом Джоном О’Мара и Джерри Вутерсом, которые объединились, чтобы попытаться уничтожить преступный мир Коэна.

Качество: HDRip (Рип с BDRip 720p)
Формат: MP4
Видео кодек: H.264
Аудио кодек: AAC
Видео: 960х400 (2.40:1), 1000 kbps, 23.976 fps
Аудио 1: Русский, 2 ch, 48 kHz, 128 kbps [DUB, BD CEE]
Аудио 2: Украинский, 2 ch, 48 kHz, 128 kbps [DUB, BD CEE]
Аудио 3: Английский, 2 ch, 48 kHz, 128 kbps [Original]
• Персонаж Райана Гослинга в одной сцене шутит о том, что единственный знаменитый Микки, о котором он слышал, это Микки Маус. Будучи ребенком, Райан Гослинг снимался в сериале «ММС» (1989-1994).
• Брайан Крэнстон прошел пробы на роль Макса Кеннарда, но отказался от участия из-за проблем с расписанием съемок фильма «Операция «Арго»» (2012).
• Эшли Грин, Тереза Палмер, Камилла Белль, Элисон Мичалка, Лили Коллинз, Эмми Россам, Аманда Сайфред и Мэгги Грэйс пробовались на роль Грэйс Фарадэй.
• Джейми Фокс рассматривался на роль Коулмана Харриса.
• Эми Адамс и Кейт Уинслет рассматривались на роль Конни О`Мара.
• Адам Броди, Джоэл Эдгертон, Люк Эванс и Джозеф Гордон-Левитт были близки к получению роли сержанта Джерри Вутерса, но роль была отдана Райану Гослингу.
• В первых трейлерах фильма была мафиозная перестрелка в кинотеатре, но после трагедии на премьере «Темный рыцарь: Возрождение легенды», выход фильма был перенесен с сентября 2012 на январь 2013, сцена была вырезана, а остальное перемонтировано.
• Отель и виллы под названием «The Garden of Allah» существовали в реальной жизни. И были расположены на Бульваре Сансет 8152 в Западном Голливуде, Калифорния.
• Каждое утро перед съемками Шону Пенну по 3 часа наносили макияж.
x264 [info]: frame I:2142 Avg QP:14.39 size: 43974 PSNR Mean Y:48.86 U:52.27 V:52.95 Avg:49.71 Global:49.47
x264 [info]: frame P:45936 Avg QP:17.69 size: 10264 PSNR Mean Y:46.78 U:51.04 V:53.24 Avg:47.78 Global:47.41
x264 [info]: frame B:114355 Avg QP:21.66 size: 2457 PSNR Mean Y:46.04 U:50.87 V:53.12 Avg:47.12 Global:46.73
x264 [info]: consecutive B-frames: 2.8% 4.7% 15.6% 76.9%
x264 [info]: mb I I16..4: 11.0% 63.2% 25.9%
x264 [info]: mb P I16..4: 1.6% 5.1% 1.0% P16..4: 47.6% 15.5% 14.5% 0.8% 0.3% skip:13.7%
x264 [info]: mb B I16..4: 0.1% 0.4% 0.1% B16..8: 43.1% 5.4% 1.2% direct: 2.4% skip:47.3% L0:42.5% L1:51.8% BI: 5.7%
x264 [info]: 8x8 transform intra:65.4% inter:57.6%
x264 [info]: direct mvs spatial:97.3% temporal:2.7%
x264 [info]: coded y,uvDC,uvAC intra: 73.8% 67.5% 42.0% inter: 12.5% 10.5% 1.4%
x264 [info]: i16 v,h,dc,p: 32% 19% 12% 37%
x264 [info]: i8 v,h,dc,ddl,ddr,vr,hd,vl,hu: 10% 8% 5% 10% 15% 14% 14% 12% 13%
x264 [info]: i4 v,h,dc,ddl,ddr,vr,hd,vl,hu: 10% 8% 5% 12% 15% 13% 13% 11% 13%
x264 [info]: i8c dc,h,v,p: 43% 25% 20% 12%
x264 [info]: Weighted P-Frames: Y:2.8% UV:1.3%
x264 [info]: ref P L0: 55.6% 9.1% 14.5% 6.8% 4.9% 3.9% 3.1% 1.7% 0.3% 0.0%
x264 [info]: ref B L0: 78.1% 12.2% 5.1% 2.0% 1.4% 0.8% 0.4%
x264 [info]: ref B L1: 91.9% 8.1%
x264 [info]: SSIM Mean Y:0.9866598 (18.748db)
x264 [info]: PSNR Mean Y:46.286 U:50.936 V:53.156 Avg:47.338 Global:46.940 kb/s:999.83

x264 [total]: encoded 162433 frames, 27.72 fps, 999.83 kb/s
General
Complete name : [VIDEO] Gangster.Squad.2013.HDRip.x264.960x(semen_52-TNC).mp4
Format : MPEG-4
Format profile : Base Media
Codec ID : isom
File size : 1.10 GiB
Duration : 1h 52mn
Overall bit rate mode : Variable
Overall bit rate : 1 399 Kbps
Movie name : [VIDEO] Gangster Squad 2013 HDRip x264 960x(semen_52-TNC)
ContentType : Short Film
Encoded date : UTC 2013-09-22 10:33:09
Tagged date : UTC 2013-09-22 10:38:24
Writing application : MkvToMp4 version 0.221a
Comment : Rip by semen_52-TNC

Video
ID : 1
Format : AVC
Format/Info : Advanced Video Codec
Format profile : [email protected]
Format settings, CABAC : Yes
Format settings, ReFrames : 8 frames
Codec ID : avc1
Codec ID/Info : Advanced Video Coding
Duration : 1h 52mn
Bit rate : 1 000 Kbps
Maximum bit rate : 6 639 Kbps
Width : 960 pixels
Height : 400 pixels
Display aspect ratio : 2.40:1
Frame rate mode : Constant
Frame rate : 23.976 fps
Color space : YUV
Chroma subsampling : 4:2:0
Bit depth : 8 bits
Scan type : Progressive
Bits/(Pixel*Frame) : 0.109
Stream size : 807 MiB (71%)
Writing library : x264 core 125 r2200 999b753
Encoding settings : cabac=1 / ref=8 / deblock=1:0:0 / analyse=0x3:0x133 / me=umh / subme=9 / psy=1 / psy_rd=1.00:0.00 / mixed_ref=1 / me_range=16 / chroma_me=1 / trellis=2 / 8x8dct=1 / cqm=0 / deadzone=21,11 / fast_pskip=0 / chroma_qp_offset=-2 / threads=9 / lookahead_threads=1 / sliced_threads=0 / nr=0 / decimate=1 / interlaced=0 / bluray_compat=0 / constrained_intra=0 / bframes=3 / b_pyramid=2 / b_adapt=2 / b_bias=0 / direct=3 / weightb=1 / open_gop=0 / weightp=2 / keyint=250 / keyint_min=25 / scenecut=40 / intra_refresh=0 / rc_lookahead=90 / rc=2pass / mbtree=1 / bitrate=1000 / ratetol=1.0 / qcomp=0.60 / qpmin=0 / qpmax=69 / qpstep=4 / cplxblur=20.0 / qblur=0.5 / ip_ratio=1.40 / aq=1:1.00
Language : English
Encoded date : UTC 2013-09-22 10:33:09
Tagged date : UTC 2013-09-22 10:35:18

Audio #1
ID : 2
Format : AAC
Format/Info : Advanced Audio Codec
Format profile : LC
Codec ID : 40
Duration : 1h 52mn
Bit rate mode : Variable
Bit rate : 128 Kbps
Maximum bit rate : 135 Kbps
Channel count : 2 channels
Channel positions : Front: L R
Sampling rate : 48.0 KHz
Compression mode : Lossy
Stream size : 103 MiB (9%)
Language : Russian
Encoded date : UTC 2013-09-22 10:33:26
Tagged date : UTC 2013-09-22 10:35:18

Audio #2
ID : 3
Format : AAC
Format/Info : Advanced Audio Codec
Format profile : LC
Codec ID : 40
Duration : 1h 52mn
Bit rate mode : Variable
Bit rate : 128 Kbps
Maximum bit rate : 135 Kbps
Channel count : 2 channels
Channel positions : Front: L R
Sampling rate : 48.0 KHz
Compression mode : Lossy
Stream size : 103 MiB (9%)
Language : Ukrainian
Encoded date : UTC 2013-09-22 10:34:43
Tagged date : UTC 2013-09-22 10:35:18

Audio #3
ID : 4
Format : AAC
Format/Info : Advanced Audio Codec
Format profile : LC
Codec ID : 40
Duration : 1h 52mn
Bit rate mode : Variable
Bit rate : 128 Kbps
Maximum bit rate : 135 Kbps
Channel count : 2 channels
Channel positions : Front: L R
Sampling rate : 48.0 KHz
Compression mode : Lossy
Stream size : 103 MiB (9%)
Language : English
Encoded date : UTC 2013-09-22 10:35:01
Tagged date : UTC 2013-09-22 10:35:18


Трекер:  [ 24-Сен-2013 12:52 ]

  

Скачать .torrent

Размер .torrent файла 11 KB


Размер: 1.1 GB
Хэш (hash) релиза: d227e77d31fc09039c590e728d421a2b2547592e

bot

Топик был перенесен из форума Мобильные устройства в форум КПК

Galfimbul

Хотите добавить комментарий к записи скачать торрент [VIDEO] Охотники на гангстеров Gangster Squad

!Обратная связь