Philippine Drama | Electrical Installation Work - Level 1 by Peter Roberts | Hugo Becker

Скачать через торрент [VIDEO] Невероятный Бёрт Уандерстоун The Incredible Burt Wonderstone бесплатно русская версия torrent активатор

Статистика раздачи
Размер:  1.03 GB   |    Зарегистрирован:  4 года 9 месяцев   |    .torrent скачан:  42 раза   |   
Раздают:  1  
   
загрузка...
 
Автор Сообщение

Galfimbul

avatar Galfimbul


Невероятный Бёрт Уандерстоун
The Incredible Burt Wonderstone

Год выпуска: 2013
Страна: США, BenderSpink, Carousel Productions (II), New Line Cinema
Жанр: Комедия
Продолжительность: 01:40:18
Перевод: Профессиональный дублированный [BD CEE]
Оригинальная дорожка: Есть
Cубтитры: Нет
Режиссер: Дон Скардино / Don Scardino
В ролях: Стив Карелл, Стив Бушеми, Оливия Уайлд, Джим Керри, Джеймс Гандольфини, Алан Аркин, Джей Мор, Михаэль Хербиг, Мэйсон Кук, Люк Ванек, Захари Гордан, Брэд Гэррет, Фиона Хейл, Соня Эдди, Рон Остроу, Джошуа Эренберг, Рон Пирсон, Роберт Рэй Мэннинг мл., Джиллиан Джейкобс, Кристина Гаусас, Тейт Ханиок, Чарли Хартсок, Джон Фрэнсис Дейли, Фридом, Мелисса Ордвэй, Вэнс ДеДженерес, Мюррэй Гершенц
Описание: Фильм рассказывает историю двух фокусников-конкурентов в Лас-Вегасе. Бёрт Уандерстоун однажды во время исполнения номера лишается напарника, и все оставшееся время пытается вернуть себе мотивацию и вернуться к любимому занятию.

Качество: HDRip (Рип с BDRip 720p)
Формат: MP4
Видео кодек: H.264
Аудио кодек: AAC
Видео: 960х400 (2.40:1), 1200 kbps, 23.976 fps
Аудио 1: Русский, 2 ch, 48 kHz, 128 kbps [DUB, BD CEE]
Аудио 2: Английский, 2 ch, 48 kHz, 128 kbps [Original]
• Стив Грей — это очевидная пародия на известного иллюзиониста Крисса Энджела, который также работал консультантом в этом проекте.
• Дэвид Копперфильд поделился некой информацией о фокусах специально для фильма. Эта информация была настолько конфиденциальной, что он даже подписал специальные соглашения о том, что она не будет разглашаться.
• На роль Джейн рассматривались Мишель Монахэн, Вайнона Райдер, Джуди Грир, Сара Сильверман и Джессика Бил.
• Саша Барон Коэн и Мэттью Бродерик рассматривались на роль Стива Грея.
• Режиссер Дон Скардино настаивал на том, чтобы самые невероятные фокусы в фильме были сняты вживую. И хотя сам Дэвид Копперфильд работал в качестве консультанта во время съемок этих сцен, некоторые из них все же были сделаны при помощи компьютерной графики.
x264 [info]: frame I:1733 Avg QP:17.16 size: 54096 PSNR Mean Y:46.14 U:49.31 V:50.67 Avg:47.02 Global:46.67
x264 [info]: frame P:39088 Avg QP:20.04 size: 12949 PSNR Mean Y:43.93 U:48.00 V:49.37 Avg:44.93 Global:44.42
x264 [info]: frame B:103468 Avg QP:23.45 size: 2926 PSNR Mean Y:43.02 U:47.71 V:49.15 Avg:44.10 Global:43.60
x264 [info]: consecutive B-frames: 2.0% 2.6% 13.2% 82.1%
x264 [info]: mb I I16..4: 9.5% 68.2% 22.2%
x264 [info]: mb P I16..4: 1.3% 4.3% 1.0% P16..4: 48.0% 16.7% 16.9% 1.2% 0.4% skip:10.2%
x264 [info]: mb B I16..4: 0.1% 0.4% 0.1% B16..8: 44.3% 5.9% 1.6% direct: 2.3% skip:45.3% L0:43.1% L1:49.3% BI: 7.6%
x264 [info]: 8x8 transform intra:66.3% inter:58.2%
x264 [info]: direct mvs spatial:97.4% temporal:2.6%
x264 [info]: coded y,uvDC,uvAC intra: 79.4% 78.1% 53.9% inter: 14.8% 15.2% 2.0%
x264 [info]: i16 v,h,dc,p: 54% 16% 9% 21%
x264 [info]: i8 v,h,dc,ddl,ddr,vr,hd,vl,hu: 12% 7% 5% 10% 15% 15% 13% 12% 11%
x264 [info]: i4 v,h,dc,ddl,ddr,vr,hd,vl,hu: 13% 7% 4% 10% 15% 15% 12% 12% 12%
x264 [info]: i8c dc,h,v,p: 41% 22% 22% 15%
x264 [info]: Weighted P-Frames: Y:2.5% UV:1.3%
x264 [info]: ref P L0: 52.2% 11.9% 14.8% 6.9% 5.0% 3.9% 3.2% 1.7% 0.2% 0.0%
x264 [info]: ref B L0: 76.4% 11.5% 6.1% 2.6% 1.9% 1.1% 0.5%
x264 [info]: ref B L1: 93.1% 6.9%
x264 [info]: SSIM Mean Y:0.9774024 (16.459db)
x264 [info]: PSNR Mean Y:43.301 U:47.809 V:49.225 Avg:44.363 Global:43.835 kb/s:1199.97

x264 [total]: encoded 144289 frames, 20.56 fps, 1199.97 kb/s
General
Complete name : [VIDEO] The.Incredible.Burt.Wonderstone.2013.HDRip.x264.960x(semen_52-TNC).mp4
Format : MPEG-4
Format profile : Base Media
Codec ID : isom
File size : 1.03 GiB
Duration : 1h 40mn
Overall bit rate mode : Variable
Overall bit rate : 1 468 Kbps
Movie name : [VIDEO] The Incredible Burt Wonderstone 2013 HDRip x264 960x(semen_52-TNC)
ContentType : Short Film
Encoded date : UTC 2013-09-22 16:04:47
Tagged date : UTC 2013-09-22 16:09:00
Writing application : MkvToMp4 version 0.221a
Comment : Rip by semen_52-TNC

Video
ID : 1
Format : AVC
Format/Info : Advanced Video Codec
Format profile : [email protected]
Format settings, CABAC : Yes
Format settings, ReFrames : 8 frames
Codec ID : avc1
Codec ID/Info : Advanced Video Coding
Duration : 1h 40mn
Bit rate : 1 200 Kbps
Maximum bit rate : 5 897 Kbps
Width : 960 pixels
Height : 400 pixels
Display aspect ratio : 2.40:1
Frame rate mode : Constant
Frame rate : 23.976 fps
Color space : YUV
Chroma subsampling : 4:2:0
Bit depth : 8 bits
Scan type : Progressive
Bits/(Pixel*Frame) : 0.130
Stream size : 861 MiB (82%)
Writing library : x264 core 125 r2200 999b753
Encoding settings : cabac=1 / ref=8 / deblock=1:0:0 / analyse=0x3:0x133 / me=umh / subme=9 / psy=1 / psy_rd=1.00:0.00 / mixed_ref=1 / me_range=16 / chroma_me=1 / trellis=2 / 8x8dct=1 / cqm=0 / deadzone=21,11 / fast_pskip=0 / chroma_qp_offset=-2 / threads=9 / lookahead_threads=1 / sliced_threads=0 / nr=0 / decimate=1 / interlaced=0 / bluray_compat=0 / constrained_intra=0 / bframes=3 / b_pyramid=2 / b_adapt=2 / b_bias=0 / direct=3 / weightb=1 / open_gop=0 / weightp=2 / keyint=250 / keyint_min=25 / scenecut=40 / intra_refresh=0 / rc_lookahead=90 / rc=2pass / mbtree=1 / bitrate=1200 / ratetol=1.0 / qcomp=0.60 / qpmin=0 / qpmax=69 / qpstep=4 / cplxblur=20.0 / qblur=0.5 / ip_ratio=1.40 / aq=1:1.00
Language : English
Encoded date : UTC 2013-09-22 16:04:47
Tagged date : UTC 2013-09-22 16:06:15

Audio #1
ID : 2
Format : AAC
Format/Info : Advanced Audio Codec
Format profile : LC
Codec ID : 40
Duration : 1h 40mn
Bit rate mode : Variable
Bit rate : 128 Kbps
Maximum bit rate : 135 Kbps
Channel count : 2 channels
Channel positions : Front: L R
Sampling rate : 48.0 KHz
Compression mode : Lossy
Stream size : 91.8 MiB (9%)
Language : Russian
Encoded date : UTC 2013-09-22 16:05:03
Tagged date : UTC 2013-09-22 16:06:15

Audio #2
ID : 3
Format : AAC
Format/Info : Advanced Audio Codec
Format profile : LC
Codec ID : 40
Duration : 1h 40mn
Bit rate mode : Variable
Bit rate : 128 Kbps
Maximum bit rate : 135 Kbps
Channel count : 2 channels
Channel positions : Front: L R
Sampling rate : 48.0 KHz
Compression mode : Lossy
Stream size : 91.8 MiB (9%)
Language : English
Encoded date : UTC 2013-09-22 16:05:34
Tagged date : UTC 2013-09-22 16:06:15


Трекер:  [ 24-Сен-2013 12:52 ]

  

Скачать .torrent

Размер .torrent файла 10 KB


Размер: 1.03 GB
Хэш (hash) релиза: 5dc023f38365a294e2fa2f267117d9199e8b8753

bot

Топик был перенесен из форума Мобильные устройства в форум КПК

Galfimbul

Хотите добавить комментарий к записи скачать торрент [VIDEO] Невероятный Бёрт Уандерстоун The Incredible Burt Wonderstone

!Обратная связь