Учебники | One Direction - History. | Area no Kishi Subtitle Indonesia

Скачать через торрент [VIDEO] Джeк – покoритель вeликанов Jаck thе Giаnt Slаyer бесплатно русская версия torrent активатор

Статистика раздачи
Размер:  1.6 GB   |    Зарегистрирован:  4 года 9 месяцев   |    .torrent скачан:  33 раза   |   
Раздают:  1  
   
загрузка...
 
Автор Сообщение

Galfimbul

avatar Galfimbul


Джек – покоритель великанов
Jack the Giant Slayer

Год выпуска: 2013
Страна: США, Langley Park Productions, Lin Pictures, Village Roadshow Pictures
Жанр: Фэнтези, драма, мелодрама, приключения
Продолжительность: 01:54:20
Перевод: Русский - Профессиональный дублированный [BD CEE]
//////..//////Украинский - Профессиональный дублированный [BD CEE]
Оригинальная дорожка: Есть
Cубтитры: Нет
Режиссер: Брайан Сингер / Bryan Singer
В ролях: Николас Холт, Эван МакГрегор, Билл Найи, Стэнли Туччи, Иэн МакШейн, Уорвик Дэвис, Эдди Марсан, Юэн Бремнер, Элинор Томлинсон, Джон Кассир
Описание: История начинается с похищения принцессы, что грозит нарушить хрупкий мир между людьми и великанами. Юный фермер возглавляет вылазку в царство гигантов в надежде спасти девушку.

Качество: HDRip (Рип с BDRip 720p)
Формат: MP4
Видео кодек: H.264
Аудио кодек: AAC
Видео: 960х400 (2.40:1), 1600 kbps, 23.976 fps
Аудио 1: Русский, 2 ch, 48 kHz, 128 kbps [DUB, BD CEE]
Аудио 2: Украинский, 2 ch, 48 kHz, 128 kbps [DUB, BD CEE]
Аудио 3: Английский, 2 ch, 48 kHz, 128 kbps [Original]
• Персонаж Юэна МакГрегора говорит, что у него плохое предчувствие. Эту же фразу дважды произносит его персонаж из «Звездных войн» Оби-Ван Кеноби. Уорвик Дэвис и Ральф Браун также снимались вместе с ним в «Звездные войны: Эпизод 1 — Скрытая угроза» (1999).
• В фильме есть некоторые намеки на библейскую историю Давида. Давид, как и Джек, убил великана, а затем женился на дочери короля, чтобы самому стать королем. Давид убил Голиафа, используя пращу. А в фильме один из великанов стреляет по городу камнями из рогатки.
• Во время боя с Родериком Элмонт три раза роняет кинжал Джека, но при этом поднимает его только один раз. В первый раз — когда он падает на гигантскую статую (он не поднимает его), второй — когда клинок выбивают из его рук (позже он подбирает его ртом), в третий раз — когда лезвие пронзает Родерика. Не показывают, как между первым и вторым разом кинжал попадает в руки Элмонта.
x264 [info]: frame I:1991 Avg QP:15.72 size: 61657 PSNR Mean Y:47.66 U:51.59 V:51.51 Avg:48.54 Global:47.91
x264 [info]: frame P:49038 Avg QP:19.12 size: 15257 PSNR Mean Y:45.32 U:51.18 V:50.23 Avg:46.37 Global:45.51
x264 [info]: frame B:113469 Avg QP:23.11 size: 4418 PSNR Mean Y:44.58 U:51.08 V:50.24 Avg:45.71 Global:44.83
x264 [info]: consecutive B-frames: 3.5% 5.8% 23.4% 67.3%
x264 [info]: mb I I16..4: 6.7% 70.7% 22.7%
x264 [info]: mb P I16..4: 1.3% 8.7% 1.5% P16..4: 41.5% 17.6% 14.9% 1.9% 0.7% skip:11.8%
x264 [info]: mb B I16..4: 0.1% 1.2% 0.3% B16..8: 40.8% 8.3% 2.5% direct: 3.7% skip:43.2% L0:39.9% L1:48.9% BI:11.2%
x264 [info]: 8x8 transform intra:74.7% inter:57.9%
x264 [info]: direct mvs spatial:95.9% temporal:4.1%
x264 [info]: coded y,uvDC,uvAC intra: 84.9% 74.4% 42.5% inter: 20.4% 15.4% 1.7%
x264 [info]: i16 v,h,dc,p: 31% 15% 9% 45%
x264 [info]: i8 v,h,dc,ddl,ddr,vr,hd,vl,hu: 8% 8% 4% 10% 15% 14% 14% 12% 14%
x264 [info]: i4 v,h,dc,ddl,ddr,vr,hd,vl,hu: 8% 7% 4% 10% 16% 15% 15% 12% 15%
x264 [info]: i8c dc,h,v,p: 43% 25% 18% 14%
x264 [info]: Weighted P-Frames: Y:5.7% UV:2.5%
x264 [info]: ref P L0: 58.7% 13.6% 11.9% 5.4% 3.7% 2.8% 2.2% 1.3% 0.3% 0.0%
x264 [info]: ref B L0: 83.6% 8.6% 3.9% 1.7% 1.2% 0.7% 0.3%
x264 [info]: ref B L1: 93.9% 6.1%
x264 [info]: SSIM Mean Y:0.9839038 (17.933db)
x264 [info]: PSNR Mean Y:44.836 U:51.115 V:50.251 Avg:45.940 Global:45.049 kb/s:1600.04

x264 [total]: encoded 164498 frames, 8.66 fps, 1600.04 kb/s
General
Complete name : [VIDEO] Dzhek.Pokoritel.Velikanov.2013.HDRip.x264.960x(semen_52-TNC).mp4
Format : MPEG-4
Format profile : Base Media
Codec ID : isom
File size : 1.60 GiB
Duration : 1h 54mn
Overall bit rate mode : Variable
Overall bit rate : 1 999 Kbps
Movie name : [VIDEO] Dzhek Pokoritel Velikanov 2013 HDRip x264 960x(semen_52-TNC)
ContentType : Short Film
Encoded date : UTC 2013-09-22 16:14:25
Tagged date : UTC 2013-09-22 16:21:17
Writing application : MkvToMp4 version 0.221a
Comment : Rip by semen_52-TNC

Video
ID : 1
Format : AVC
Format/Info : Advanced Video Codec
Format profile : [email protected]
Format settings, CABAC : Yes
Format settings, ReFrames : 8 frames
Codec ID : avc1
Codec ID/Info : Advanced Video Coding
Duration : 1h 54mn
Bit rate : 1 600 Kbps
Maximum bit rate : 11.7 Mbps
Width : 960 pixels
Height : 400 pixels
Display aspect ratio : 2.40:1
Frame rate mode : Constant
Frame rate : 23.976 fps
Color space : YUV
Chroma subsampling : 4:2:0
Bit depth : 8 bits
Scan type : Progressive
Bits/(Pixel*Frame) : 0.174
Stream size : 1.28 GiB (80%)
Writing library : x264 core 125 r2200 999b753
Encoding settings : cabac=1 / ref=8 / deblock=1:0:0 / analyse=0x3:0x133 / me=umh / subme=9 / psy=1 / psy_rd=1.00:0.00 / mixed_ref=1 / me_range=16 / chroma_me=1 / trellis=2 / 8x8dct=1 / cqm=0 / deadzone=21,11 / fast_pskip=0 / chroma_qp_offset=-2 / threads=9 / lookahead_threads=1 / sliced_threads=0 / nr=0 / decimate=1 / interlaced=0 / bluray_compat=0 / constrained_intra=0 / bframes=3 / b_pyramid=2 / b_adapt=2 / b_bias=0 / direct=3 / weightb=1 / open_gop=0 / weightp=2 / keyint=250 / keyint_min=25 / scenecut=40 / intra_refresh=0 / rc_lookahead=90 / rc=2pass / mbtree=1 / bitrate=1600 / ratetol=1.0 / qcomp=0.60 / qpmin=0 / qpmax=69 / qpstep=4 / cplxblur=20.0 / qblur=0.5 / ip_ratio=1.40 / aq=1:1.00
Language : English
Encoded date : UTC 2013-09-22 16:14:25
Tagged date : UTC 2013-09-22 16:16:19

Audio #1
ID : 2
Format : AAC
Format/Info : Advanced Audio Codec
Format profile : LC
Codec ID : 40
Duration : 1h 54mn
Bit rate mode : Variable
Bit rate : 128 Kbps
Maximum bit rate : 135 Kbps
Channel count : 2 channels
Channel positions : Front: L R
Sampling rate : 48.0 KHz
Compression mode : Lossy
Stream size : 105 MiB (6%)
Language : Russian
Encoded date : UTC 2013-09-22 16:14:59
Tagged date : UTC 2013-09-22 16:16:19

Audio #2
ID : 3
Format : AAC
Format/Info : Advanced Audio Codec
Format profile : LC
Codec ID : 40
Duration : 1h 54mn
Bit rate mode : Variable
Bit rate : 128 Kbps
Maximum bit rate : 135 Kbps
Channel count : 2 channels
Channel positions : Front: L R
Sampling rate : 48.0 KHz
Compression mode : Lossy
Stream size : 105 MiB (6%)
Language : Ukrainian
Encoded date : UTC 2013-09-22 16:15:24
Tagged date : UTC 2013-09-22 16:16:19

Audio #3
ID : 4
Format : AAC
Format/Info : Advanced Audio Codec
Format profile : LC
Codec ID : 40
Duration : 1h 54mn
Bit rate mode : Variable
Bit rate : 128 Kbps
Maximum bit rate : 135 Kbps
Channel count : 2 channels
Channel positions : Front: L R
Sampling rate : 48.0 KHz
Compression mode : Lossy
Stream size : 105 MiB (6%)
Language : English
Encoded date : UTC 2013-09-22 16:15:54
Tagged date : UTC 2013-09-22 16:16:19


Трекер:  [ 24-Сен-2013 12:52 ]

  

Скачать .torrent

Размер .torrent файла 16 KB


Размер: 1.6 GB
Хэш (hash) релиза: d3f0ae09a1f131ae5c9d1a2b9c19bd6bfdfb7e60

bot

Топик был перенесен из форума Мобильные устройства в форум КПК

Galfimbul

Хотите добавить комментарий к записи скачать торрент [VIDEO] Джeк – покoритель вeликанов Jаck thе Giаnt Slаyer

!Обратная связь