Télécharger | Train to Busan (2016 ) 720p HDRip x264 Eng Subs [Dual Audio] [Hindi DD 5 1 - Engl | Australia

Скачать через торрент музыку Defqon.1 No Time to Waste бесплатно без регистрации torrent

Статистика раздачи
Размер:  21.89 GB   |    Зарегистрирован:  7 лет 6 месяцев   |    .torrent скачан:  45 раз   |   
Раздают:  1  
   
загрузка...
 
Автор Сообщение

AqvaGen


Defqon.1 No Time to Waste (2010)

Жанр: HardStyle/HardCore
Страна: Нидерланды
Год выпуска: 2010
Продолжительность: 01:48:11

Описание:
Defqon.1 - ежегодный Q-dance event, проходящий в местечке Almere Strand под Амстердамом на берегу залива: пиво, красивые девушки и парни, а также прекрасная музыка, которая заставляет танцевать всех, кто находится в этом прекрасном месте.

Фестиваль, посвященный таким hard dance стилям, как Hardstyle, Techno, Hardcore, Hardtrance, Jumpstyle, Oldskool, French Tek, получает все большее признание на пляже Альмеры. Это событие происходит в каждую последнюю пятницу июня ежегодно. Позвольте Q-dance расширить ваше сознание с помощью лучшего шоу в мире.

За последние 9 лет фестиваль Defqon.1 стал крупнейшим событием в мире hard dance музыки, проходящим на открытом воздухе. Нидерланды сейчас являются эпицентром hardcore сцены – здесь сосредоточены признанные продюсеры, площадки высоко уровня, к тому же здесь находится родной дом всех мероприятий компании Q-dance.

Невероятный отклик на мировые туры Q-dancе и шоу X-Qlusive, прошедшие недавно в Австралии, дали компании Q-dance понять, что и австралийские фаны готовы к таким большим по масштабам мероприятий. Скоро hardcore поработит мир!

Это долгожданное событие, созданное для поднятия интереса к тяжелым стилям танцевальной музыки, гарантирует действительно уникальные, ни с чем не сравнимые впечатления.

English
This unique 3 disc special edition release on CD,DVD & Blu-ray contains a live DJ set by Noisecontrollers on CD + the live event registration of Defqon 1 "No Time To Waste" held on Almere strand + exclusive backstage footage and a lot of extra. This exclusive release gives you a brilliant overview of this mind-blowing festival. This 3 disc special edition comes in a 8 page digipack and is produced in FULL HD (1080P) and contains DTS-HD master audio.

Качество: Blu-ray
Контейнер: BDMV

Видео: MPEG-4 AVC Video / 1920x1080 (1080i) / 16434 kbps / 16:9 / High Profile 4.1
Аудио #1: English / DTS-HD Master Audio / 5.1 / 48 kHz / 3308 kbps / 16-bit (DTS Core: 5.1 / 48 kHz / 1509 kbps / 16-bit)
Аудио #2: English / Dolby Digital Audio / 5.1 / 48 kHz / 448 kbps
01. DJ Duro & The Prophet Shizzle My Dizzle DJ Duro & The Prophet - Shizzle My Dizzle
02. Toneshifterz & Nitrouz Da BidNiz Toneshifterz & Nitrouz - Da BidNiz
03. Headhunterz & Wildstylez vs. N Tonight Headhunterz & Wildstylez vs. N - Tonight
04. Noisecontrollers Faster 'n Further Noisecontrollers - Faster 'n Further
05. Headhunterz Subsonic Headhunterz - Subsonic
06. Noisecontrollers Promises Noisecontrollers - Promises
07. Noisecontrollers Summer In The City Noisecontrollers - Summer In The City
08. Noisecontrollers & Toneshifter Jaydee Noisecontrollers & Toneshifter - Jaydee
09. Noisecontrollers Marlboro Man Noisecontrollers - Marlboro Man
10. Toneshifterz Elektro Shock Toneshifterz - Elektro Shock
11. Noisecontrollers The Darkside Of Emotions Noisecontrollers - The Darkside Of Emotions
12. Noisecontrollers Attack Again Noisecontrollers - Attack Again
13. Noisecontrollers Club Jumper Noisecontrollers - Club Jumper
14. Killer Clown Silentium Killer Clown - Silentium
15. Noisecontrollers Shreek Noisecontrollers - Shreek
16. Noisecontrollers & Zany Paranoid Noisecontrollers & Zany - Paranoid
17. Wildstylez No Time To Waiste Wildstylez - No Time To Waiste
18. Donkey Rollers D.O.N.K.E.Y. Donkey Rollers - D.O.N.K.E.Y.
19. Headhunterz Forever Az One Headhunterz - Forever Az One
20. Noisecontrollers Summer In The City Noisecontrollers - Summer In The City
21. Showtek We Live For The Music
Disc Title: DEFQON_2010
Disc Size: 23 504 459 064 bytes
Protection: AACS
BD-Java: No
BDInfo: 0.5.6

Notes:

BDINFO HOME:
Cinema Squid
http://www.cinemasquid.com/blu-ray/tools/bdinfo

INCLUDES FORUMS REPORT FOR:
AVS Forum Blu-ray Audio and Video Specifications Thread
http://www.avsforum.com/avs-vb/showthread.php?t=1155731

********************
PLAYLIST: 00000.MPLS
********************

<--- BEGIN FORUMS PASTE --->

Код:

Total   Video
Title                                                           Codec   Length  Movie Size      Disc Size       Bitrate Bitrate Main Audio Track                          Secondary Audio Track
-----                                                           ------  ------- --------------  --------------  ------- ------- ------------------                        ---------------------
00000.MPLS                                                      AVC     1:48:11 17 376 282 624  23 504 459 064  21,41   16,43   DTS-HD Master 5.1 3308Kbps (48kHz/16-bit) DD AC3 5.1 448Kbps[/spoiler]
[code]DISC INFO:

Disc Title:     DEFQON_2010
Disc Size:      23 504 459 064 bytes
Protection:     AACS
BD-Java:        No
BDInfo:         0.5.6

PLAYLIST REPORT:

Name:                   00000.MPLS
Length:                 1:48:11 (h:m:s)
Size:                   17 376 282 624 bytes
Total Bitrate:          21,41 Mbps

VIDEO:

Codec                   Bitrate             Description
-----                   -------             -----------
MPEG-4 AVC Video        16434 kbps          1080i / 25 fps / 16:9 / High Profile 4.1

AUDIO:

Codec                           Language        Bitrate         Description
-----                           --------        -------         -----------
DTS-HD Master Audio             English         3308 kbps       5.1 / 48 kHz / 3308 kbps / 16-bit (DTS Core: 5.1 / 48 kHz / 1509 kbps / 16-bit)
Dolby Digital Audio             English         448 kbps        5.1 / 48 kHz / 448 kbps

FILES:

Name            Time In         Length          Size            Total Bitrate
----            -------         ------          ----            -------------
00000.M2TS      0:00:00.000     1:48:11.960     17 376 282 624  21 413

CHAPTERS:

Number          Time In         Length          Avg Video Rate  Max 1-Sec Rate  Max 1-Sec Time  Max 5-Sec Rate  Max 5-Sec Time  Max 10Sec Rate  Max 10Sec Time  Avg Frame Size  Max Frame Size  Max Frame Time
------          -------         ------          --------------  --------------  --------------  --------------  --------------  --------------  --------------  --------------  --------------  --------------
1               0:00:00.000     0:03:12.519     14 068 kbps     27 585 kbps     00:02:30.080    21 447 kbps     00:02:35.399    20 944 kbps     00:02:35.080    70 326 bytes    250 154 bytes   00:02:25.639
2               0:03:12.519     0:04:24.039     17 415 kbps     28 293 kbps     00:07:17.640    24 758 kbps     00:07:17.640    23 268 kbps     00:07:16.000    87 076 bytes    230 913 bytes   00:04:13.039
3               0:07:36.559     0:03:39.640     17 360 kbps     27 703 kbps     00:10:30.400    23 378 kbps     00:10:57.280    22 227 kbps     00:10:52.120    86 799 bytes    218 069 bytes   00:08:20.839
4               0:11:16.200     0:03:17.480     19 217 kbps     29 663 kbps     00:13:18.880    26 507 kbps     00:12:04.359    25 136 kbps     00:12:03.920    96 087 bytes    239 017 bytes   00:12:09.200
5               0:14:33.680     0:01:43.039     13 389 kbps     20 018 kbps     00:16:08.640    17 709 kbps     00:16:08.359    15 766 kbps     00:16:02.840    66 945 bytes    199 974 bytes   00:15:49.440
6               0:16:16.720     0:02:14.399     14 248 kbps     25 383 kbps     00:17:36.160    21 353 kbps     00:17:33.200    18 837 kbps     00:17:27.680    71 238 bytes    212 292 bytes   00:17:32.560
7               0:18:31.119     0:02:49.960     16 559 kbps     24 554 kbps     00:21:13.160    22 182 kbps     00:21:10.000    20 684 kbps     00:21:08.400    82 797 bytes    209 869 bytes   00:19:07.400
8               0:21:21.080     0:04:23.200     16 742 kbps     27 168 kbps     00:25:17.600    23 157 kbps     00:23:01.080    21 212 kbps     00:22:56.800    83 711 bytes    240 438 bytes   00:23:42.240
9               0:25:44.280     0:01:55.000     21 413 kbps     30 145 kbps     00:26:21.520    25 460 kbps     00:26:17.960    23 826 kbps     00:25:57.159    107 063 bytes   240 140 bytes   00:26:18.360
10              0:27:39.280     0:03:29.039     16 847 kbps     28 283 kbps     00:28:11.159    24 193 kbps     00:28:08.760    22 865 kbps     00:28:03.840    84 234 bytes    236 320 bytes   00:28:11.600
11              0:31:08.320     0:02:20.679     16 144 kbps     26 600 kbps     00:32:02.280    22 767 kbps     00:32:00.920    20 925 kbps     00:31:55.880    80 720 bytes    211 557 bytes   00:31:44.840
12              0:33:29.000     0:04:27.119     17 874 kbps     29 001 kbps     00:34:41.400    23 775 kbps     00:34:39.719    21 190 kbps     00:33:48.960    89 368 bytes    202 551 bytes   00:37:06.160
13              0:37:56.120     0:02:09.840     20 987 kbps     29 096 kbps     00:38:20.440    25 952 kbps     00:38:40.480    24 966 kbps     00:38:40.360    104 936 bytes   262 745 bytes   00:38:21.120
14              0:40:05.960     0:02:55.519     15 570 kbps     27 794 kbps     00:41:48.719    22 213 kbps     00:42:29.719    19 107 kbps     00:42:24.760    77 848 bytes    208 739 bytes   00:40:47.080
15              0:43:01.480     0:11:45.559     16 585 kbps     28 497 kbps     00:46:12.800    26 579 kbps     00:46:10.320    23 836 kbps     00:46:05.280    82 924 bytes    206 614 bytes   00:45:05.040
16              0:54:47.040     0:04:21.560     15 705 kbps     28 157 kbps     00:56:48.840    23 265 kbps     00:55:21.080    22 470 kbps     00:55:16.760    78 524 bytes    221 608 bytes   00:58:35.920
17              0:59:08.600     0:02:11.000     19 949 kbps     30 028 kbps     00:59:23.160    27 546 kbps     00:59:21.400    24 909 kbps     00:59:17.480    99 746 bytes    266 625 bytes   00:59:23.760
18              1:01:19.600     0:04:50.359     15 332 kbps     25 355 kbps     01:04:51.640    22 607 kbps     01:04:26.680    20 735 kbps     01:04:25.200    76 660 bytes    204 982 bytes   01:04:12.479
19              1:06:09.960     0:01:03.479     17 733 kbps     27 471 kbps     01:06:47.560    21 404 kbps     01:06:47.439    19 676 kbps     01:06:18.120    88 664 bytes    183 041 bytes   01:06:48.520
20              1:07:13.439     0:02:09.640     16 923 kbps     25 058 kbps     01:07:46.760    21 568 kbps     01:07:45.160    20 607 kbps     01:09:03.800    84 614 bytes    189 527 bytes   01:08:56.600
21              1:09:23.080     0:02:10.399     17 217 kbps     26 797 kbps     01:10:14.080    22 906 kbps     01:10:12.840    20 302 kbps     01:10:08.760    86 083 bytes    216 525 bytes   01:10:24.960
22              1:11:33.479     0:08:52.080     16 048 kbps     29 939 kbps     01:14:58.800    24 116 kbps     01:12:03.600    21 583 kbps     01:12:01.439    80 242 bytes    230 636 bytes   01:13:44.800
23              1:20:25.560     0:06:50.000     14 760 kbps     27 891 kbps     01:26:45.160    22 981 kbps     01:26:45.080    21 461 kbps     01:26:37.720    73 798 bytes    281 274 bytes   01:27:08.360
24              1:27:15.560     0:20:55.119     15 727 kbps     28 958 kbps     01:41:38.120    23 217 kbps     01:44:48.960    20 938 kbps     01:44:48.080    78 636 bytes    288 930 bytes   01:31:43.000
25              1:48:10.680     0:00:01.279     80 kbps         85 kbps         01:48:10.920    0 kbps          00:00:00.000    0 kbps          00:00:00.000    414 bytes       1 472 bytes     01:48:11.120

STREAM DIAGNOSTICS:

File            PID             Type            Codec           Language                Seconds                 Bitrate                 Bytes           Packets
----            ---             ----            -----           --------                --------------          --------------          -------------   -----
00000.M2TS      4113 (0x1011)   0x1B            AVC                                     6491,840                16 434                  13 335 831 401  72 654 056
00000.M2TS      4352 (0x1100)   0x81            AC3             eng (English)           6491,840                448                     363 548 416     2 028 730
00000.M2TS      4353 (0x1101)   0x86            DTS-HD MA       eng (English)           6491,840                3 308                   2 684 162 068   15 601 161[/code]
<---- END FORUMS PASTE ---->

QUICK SUMMARY:

Disc Title: DEFQON_2010
Disc Size: 23 504 459 064 bytes
Protection: AACS
BD-Java: No
Playlist: 00000.MPLS
Size: 17 376 282 624 bytes
Length: 1:48:11
Total Bitrate: 21,41 Mbps
Video: MPEG-4 AVC Video / 16434 kbps / 1080i / 25 fps / 16:9 / High Profile 4.1
Audio: English / DTS-HD Master Audio / 5.1 / 48 kHz / 3308 kbps / 16-bit (DTS Core: 5.1 / 48 kHz / 1509 kbps / 16-bit)
Audio: English / Dolby Digital Audio / 5.1 / 48 kHz / 448 kbps

********************
PLAYLIST: 00001.MPLS
********************

<--- BEGIN FORUMS PASTE --->
[code]Total   Video
Title                                                           Codec   Length  Movie Size      Disc Size       Bitrate Bitrate Main Audio Track                          Secondary Audio Track
-----                                                           ------  ------- --------------  --------------  ------- ------- ------------------                        ---------------------
00001.MPLS                                                      AVC     0:33:48 4 875 706 368   23 504 459 064  19,23   17,88   DD AC3 5.1 448Kbps[/code]
[code]DISC INFO:

Disc Title:     DEFQON_2010
Disc Size:      23 504 459 064 bytes
Protection:     AACS
BD-Java:        No
BDInfo:         0.5.6

PLAYLIST REPORT:

Name:                   00001.MPLS
Length:                 0:33:48 (h:m:s)
Size:                   4 875 706 368 bytes
Total Bitrate:          19,23 Mbps

VIDEO:

Codec                   Bitrate             Description
-----                   -------             -----------
MPEG-4 AVC Video        17882 kbps          1080i / 25 fps / 16:9 / High Profile 4.1

AUDIO:

Codec                           Language        Bitrate         Description
-----                           --------        -------         -----------
Dolby Digital Audio             English         448 kbps        5.1 / 48 kHz / 448 kbps

FILES:

Name            Time In         Length          Size            Total Bitrate
----            -------         ------          ----            -------------
00001.M2TS      0:00:00.000     0:33:48.120     4 875 706 368   19 232

CHAPTERS:

Number          Time In         Length          Avg Video Rate  Max 1-Sec Rate  Max 1-Sec Time  Max 5-Sec Rate  Max 5-Sec Time  Max 10Sec Rate  Max 10Sec Time  Avg Frame Size  Max Frame Size  Max Frame Time
------          -------         ------          --------------  --------------  --------------  --------------  --------------  --------------  --------------  --------------  --------------  --------------
1               0:00:00.000     0:33:48.120     17 882 kbps     32 795 kbps     00:09:29.079    29 160 kbps     00:29:37.920    26 190 kbps     00:20:07.560    89 408 bytes    285 656 bytes   00:13:39.720

STREAM DIAGNOSTICS:

File            PID             Type            Codec           Language                Seconds                 Bitrate                 Bytes           Packets
----            ---             ----            -----           --------                --------------          --------------          -------------   -----
00001.M2TS      4113 (0x1011)   0x1B            AVC                                     2028,000                17 883                  4 533 268 610   24 692 515
00001.M2TS      4352 (0x1100)   0x81            AC3             eng (English)           2028,000                448                     113 578 752     633 810[/code]
<---- END FORUMS PASTE ---->

QUICK SUMMARY:

Disc Title: DEFQON_2010
Disc Size: 23 504 459 064 bytes
Protection: AACS
BD-Java: No
Playlist: 00001.MPLS
Size: 4 875 706 368 bytes
Length: 0:33:48
Total Bitrate: 19,23 Mbps
Video: MPEG-4 AVC Video / 17882 kbps / 1080i / 25 fps / 16:9 / High Profile 4.1
Audio: English / Dolby Digital Audio / 5.1 / 48 kHz / 448 kbps

********************
PLAYLIST: 00002.MPLS
********************

<--- BEGIN FORUMS PASTE --->
[code]Total   Video
Title                                                           Codec   Length  Movie Size      Disc Size       Bitrate Bitrate Main Audio Track                          Secondary Audio Track
-----                                                           ------  ------- --------------  --------------  ------- ------- ------------------                        ---------------------
00002.MPLS                                                      AVC     0:05:29 663 472 128     23 504 459 064  16,09   14,87   DD AC3 5.1 448Kbps[/code]
[code]DISC INFO:

Disc Title:     DEFQON_2010
Disc Size:      23 504 459 064 bytes
Protection:     AACS
BD-Java:        No
BDInfo:         0.5.6

PLAYLIST REPORT:

Name:                   00002.MPLS
Length:                 0:05:29 (h:m:s)
Size:                   663 472 128 bytes
Total Bitrate:          16,09 Mbps

VIDEO:

Codec                   Bitrate             Description
-----                   -------             -----------
MPEG-4 AVC Video        14870 kbps          1080i / 25 fps / 16:9 / High Profile 4.1

AUDIO:

Codec                           Language        Bitrate         Description
-----                           --------        -------         -----------
Dolby Digital Audio             English         448 kbps        5.1 / 48 kHz / 448 kbps

FILES:

Name            Time In         Length          Size            Total Bitrate
----            -------         ------          ----            -------------
00002.M2TS      0:00:00.000     0:05:29.880     663 472 128     16 090

CHAPTERS:

Number          Time In         Length          Avg Video Rate  Max 1-Sec Rate  Max 1-Sec Time  Max 5-Sec Rate  Max 5-Sec Time  Max 10Sec Rate  Max 10Sec Time  Avg Frame Size  Max Frame Size  Max Frame Time
------          -------         ------          --------------  --------------  --------------  --------------  --------------  --------------  --------------  --------------  --------------  --------------
1               0:00:00.000     0:05:29.880     14 870 kbps     26 973 kbps     00:04:26.880    22 980 kbps     00:04:53.840    20 856 kbps     00:04:32.600    74 348 bytes    259 253 bytes   00:01:11.080

STREAM DIAGNOSTICS:

File            PID             Type            Codec           Language                Seconds                 Bitrate                 Bytes           Packets
----            ---             ----            -----           --------                --------------          --------------          -------------   -----
00002.M2TS      4113 (0x1011)   0x1B            AVC                                     329,800                 14 873                  613 144 851     3 341 388
00002.M2TS      4352 (0x1100)   0x81            AC3             eng (English)           329,800                 448                     18 475 520      103 100[/code]
<---- END FORUMS PASTE ---->

QUICK SUMMARY:

Disc Title: DEFQON_2010
Disc Size: 23 504 459 064 bytes
Protection: AACS
BD-Java: No
Playlist: 00002.MPLS
Size: 663 472 128 bytes
Length: 0:05:29
Total Bitrate: 16,09 Mbps
Video: MPEG-4 AVC Video / 14870 kbps / 1080i / 25 fps / 16:9 / High Profile 4.1
Audio: English / Dolby Digital Audio / 5.1 / 48 kHz / 448 kbps

********************
PLAYLIST: 00005.MPLS
********************

<--- BEGIN FORUMS PASTE --->
[code]Total   Video
Title                                                           Codec   Length  Movie Size      Disc Size       Bitrate Bitrate Main Audio Track                          Secondary Audio Track
-----                                                           ------  ------- --------------  --------------  ------- ------- ------------------                        ---------------------
00005.MPLS                                                      AVC     0:03:05 374 151 168     23 504 459 064  16,18   11,61   DTS-HD Master 5.1 3110Kbps (48kHz/16-bit) DD AC3 5.1 448Kbps[/code]
[code]DISC INFO:

Disc Title:     DEFQON_2010
Disc Size:      23 504 459 064 bytes
Protection:     AACS
BD-Java:        No
BDInfo:         0.5.6

PLAYLIST REPORT:

Name:                   00005.MPLS
Length:                 0:03:05 (h:m:s)
Size:                   374 151 168 bytes
Total Bitrate:          16,18 Mbps

VIDEO:

Codec                   Bitrate             Description
-----                   -------             -----------
MPEG-4 AVC Video        11614 kbps          1080i / 25 fps / 16:9 / High Profile 4.1

AUDIO:

Codec                           Language        Bitrate         Description
-----                           --------        -------         -----------
DTS-HD Master Audio             English         3110 kbps       5.1 / 48 kHz / 3110 kbps / 16-bit (DTS Core: 5.1 / 48 kHz / 1509 kbps / 16-bit)
Dolby Digital Audio             English         448 kbps        5.1 / 48 kHz / 448 kbps

FILES:

Name            Time In         Length          Size            Total Bitrate
----            -------         ------          ----            -------------
00009.M2TS      0:00:00.000     0:03:05.039     374 151 168     16 176

CHAPTERS:

Number          Time In         Length          Avg Video Rate  Max 1-Sec Rate  Max 1-Sec Time  Max 5-Sec Rate  Max 5-Sec Time  Max 10Sec Rate  Max 10Sec Time  Avg Frame Size  Max Frame Size  Max Frame Time
------          -------         ------          --------------  --------------  --------------  --------------  --------------  --------------  --------------  --------------  --------------  --------------
1               0:00:00.000     0:03:05.039     11 614 kbps     26 913 kbps     00:02:23.000    25 764 kbps     00:02:23.000    24 466 kbps     00:02:19.160    58 068 bytes    279 485 bytes   00:02:24.000

STREAM DIAGNOSTICS:

File            PID             Type            Codec           Language                Seconds                 Bitrate                 Bytes           Packets
----            ---             ----            -----           --------                --------------          --------------          -------------   -----
00009.M2TS      4113 (0x1011)   0x1B            AVC                                     184,880                 11 624                  268 622 229     1 464 860
00009.M2TS      4352 (0x1100)   0x81            AC3             eng (English)           184,880                 448                     10 363 136      57 830
00009.M2TS      4353 (0x1101)   0x86            DTS-HD MA       eng (English)           184,880                 3 112                   71 923 204      419 784[/code]
<---- END FORUMS PASTE ---->

QUICK SUMMARY:

Disc Title: DEFQON_2010
Disc Size: 23 504 459 064 bytes
Protection: AACS
BD-Java: No
Playlist: 00005.MPLS
Size: 374 151 168 bytes
Length: 0:03:05
Total Bitrate: 16,18 Mbps
Video: MPEG-4 AVC Video / 11614 kbps / 1080i / 25 fps / 16:9 / High Profile 4.1
Audio: English / DTS-HD Master Audio / 5.1 / 48 kHz / 3110 kbps / 16-bit (DTS Core: 5.1 / 48 kHz / 1509 kbps / 16-bit)
Audio: English / Dolby Digital Audio / 5.1 / 48 kHz / 448 kbps

********************
PLAYLIST: 00004.MPLS
********************

<--- BEGIN FORUMS PASTE --->
[code]Total   Video
Title                                                           Codec   Length  Movie Size      Disc Size       Bitrate Bitrate Main Audio Track                          Secondary Audio Track
-----                                                           ------  ------- --------------  --------------  ------- ------- ------------------                        ---------------------
00004.MPLS                                                      AVC     0:01:32 128 821 248     23 504 459 064  11,09   10,07   DD AC3 5.1 448Kbps[/code]
[code]DISC INFO:

Disc Title:     DEFQON_2010
Disc Size:      23 504 459 064 bytes
Protection:     AACS
BD-Java:        No
BDInfo:         0.5.6

PLAYLIST REPORT:

Name:                   00004.MPLS
Length:                 0:01:32 (h:m:s)
Size:                   128 821 248 bytes
Total Bitrate:          11,09 Mbps

VIDEO:

Codec                   Bitrate             Description
-----                   -------             -----------
MPEG-4 AVC Video        10073 kbps          1080i / 25 fps / 16:9 / High Profile 4.1

AUDIO:

Codec                           Language        Bitrate         Description
-----                           --------        -------         -----------
Dolby Digital Audio             English         448 kbps        5.1 / 48 kHz / 448 kbps

SUBTITLES:

Codec                           Language        Bitrate         Description
-----                           --------        -------         -----------
Interactive Graphics            English         0,295 kbps

FILES:

Name            Time In         Length          Size            Total Bitrate
----            -------         ------          ----            -------------
00007.M2TS      0:00:00.000     0:01:32.960     128 821 248     11 086

CHAPTERS:

Number          Time In         Length          Avg Video Rate  Max 1-Sec Rate  Max 1-Sec Time  Max 5-Sec Rate  Max 5-Sec Time  Max 10Sec Rate  Max 10Sec Time  Avg Frame Size  Max Frame Size  Max Frame Time
------          -------         ------          --------------  --------------  --------------  --------------  --------------  --------------  --------------  --------------  --------------  --------------
1               0:00:00.000     0:01:32.960     10 073 kbps     24 340 kbps     00:00:13.840    18 129 kbps     00:00:11.440    15 828 kbps     00:00:06.639    50 363 bytes    249 172 bytes   00:00:20.480

STREAM DIAGNOSTICS:

File            PID             Type            Codec           Language                Seconds                 Bitrate                 Bytes           Packets
----            ---             ----            -----           --------                --------------          --------------          -------------   -----
00007.M2TS      4113 (0x1011)   0x1B            AVC                                     92,800                  10 090                  117 043 914     638 701
00007.M2TS      4352 (0x1100)   0x81            AC3             eng (English)           92,800                  449                     5 205 760       29 050
00007.M2TS      5120 (0x1400)   0x91            IGS             eng (English)           92,800                  0                       3 424           28[/code]
<---- END FORUMS PASTE ---->

QUICK SUMMARY:

Disc Title: DEFQON_2010
Disc Size: 23 504 459 064 bytes
Protection: AACS
BD-Java: No
Playlist: 00004.MPLS
Size: 128 821 248 bytes
Length: 0:01:32
Total Bitrate: 11,09 Mbps
Video: MPEG-4 AVC Video / 10073 kbps / 1080i / 25 fps / 16:9 / High Profile 4.1
Audio: English / Dolby Digital Audio / 5.1 / 48 kHz / 448 kbps
Subtitle: English / 0,295 kbps
 

Трекер:  [ 14-Янв-2011 07:27 ]

  

Скачать .torrent

Размер .torrent файла 112 KB


Размер: 21.89 GB
Хэш (hash) релиза: 41e4b2c2e463e86b61466195e53c53b1fc0b74c2

Торренты, похожие на Defqon.1 No Time to Waste скачать торрент

Форум Название Автор Размер S L Добавлен
Электронная музыка (video) ·· Defqon.1 No Time to Waste [2010, Hardstyle, Hardcore, BDRip] AqvaGen 46425386284.32 GB 0 0 1294848513

19:08

12-Янв-11

Электронная музыка (video) ·· Defqon.1 No Time to Waste [2010, Hardstyle, Hardcore, BDRip] Galfimbul 790601728754 MB 0 0 1294846706

18:38

12-Янв-11

bot

Топик был перенесен в форум Электронная музыка (video)

Перенес AqvaGen

Хотите добавить комментарий к записи скачать торрент Defqon.1 No Time to Waste

!Обратная связь